Крики / Sakebi (Киёси Куросава / Kiyoshi Kurosawa) [2006 г., ужасы, триллер, детектив, DVDRip] MVO [R5]

 

Создавать темы 17-Сен-2016 03:08

-Крики / Sakebi-- Производство: Япония, Avex Entertainment, Entertainment Farm (EF) K.K., Nikkatsu Corporation, Oz Company Ltd., Tokyo Broadcasting System (TBS), ...
Год выпуска: 2006 г.
Жанр: ужасы, триллер, детектив
Продолжительность: 01:39:45Мировая премьера: 3 сентября 2006
Дата выхода DVD: 13 ноября 2008, «Настроение Video»
Перевод: Профессиональный (многоголосый, закадровый) [R5]
Режиссер: Киёси Куросава / Kiyoshi Kurosawa-В ролях: Кодзи Якусё, Манами Кониси, Цуёси Ихара, Хироюки Хираяма, Икудзи Накамура, Рё Касэ, Каору Окунуки, Хиронобу Номура, Масафуми Кобаяши, Хайме Иноэ-Описание: Вокруг полицейского детектива Йосёки происходит серия убийств. Йосиоки, чей долг — провести расследование и арестовать убийц, начинает обуревать странное чувство — ему кажется, что он и есть убийца. У убитых он находит некоторые доказательства своей причастности. Больше всего его ужасает, что у него серьезные проблемы с памятью и он не может быть уверенным в своей невиновности.-
Качество видео: DVDRip
Контейнер: AVI
Видео кодек: DivX
Аудио кодек: AC3
Видео: 688x368 (1.87:1), 25 fps, DivX Codec 6.8.3 ~1504 kbps avg, 0.24 bit/pixel
Аудио: 48 kHz, AC3 Dolby Digital, 3/2 (L,C,R,l,r) + LFE ch, ~448 kbps
Cубтитры: отсутствуют

Рецензия

Смотрел уже после незабываемого «Лечения». С первых же кадров чувствуется столь понравившийся стиль режиссера. Происходит что-то нехорошее в мрачном месте. Начало очень красивое в плане художественности. Потом расследование, которое лежит не столько в настоящем, сколько в прошлом главного героя. Следы ведут к загадочной женщине в красном.Сама идея про месть призрака довольно таки слабовата для режиссера снявшего «Лечение». По ходу фильма присутствуют несколько пугающих эпизодов. В целом же, расследование протекает достаточно вяло. Если смотреть поздно вечером, лего можно уснуть. Если не знать кто такой Киёси Куросава, фильм, очевидно, покажется милой безделушкой, оказавшей помощь в борьбе с бессоницей.Однако стоит немного сосредоточиться и отбросить всю шелуху «Звонков», «Проклятий» и т. д., тогда можно разглядеть и очень интересные размышления. Попробуйте ответить на вопросы, заданые самому себе: кто ты, кто тебе дорог? В сумасшедшем ритме современной жизни отвечать на них никогда нет времени. Детективу же приходится, и даже не один раз. В конце, как мне показалось, он находит на них ответы. Только уже слишком поздно.«Крики» — предупреждение всем нам. Ещё одна попытка напомнить о самом главном. Вот за это, а не за ужасы и мистику9 из 10

Media Info

Общее
Полное имя : C:\герои 7\Крики\Kriki.2006.DVDRip.[pirat.ca].avi
Формат : AVI
Формат/Информация : Audio Video Interleave
Размер файла : 1,37 Гбайт
Продолжительность : 1 ч. 39 м.
Общий поток : 1962 Кбит/сек
Название фильма : Kriki.2006.DVDRip.[pirat.ca]
Программа кодирования : FairUse Wizard - http://fairusewizard.comВидео
Идентификатор : 0
Формат : MPEG-4 Visual
Параметр BVOP формата : 1
Параметр QPel формата : Нет
Параметр GMC формата : Без точки перехода
Параметр матрицы формата : Default (H.263)
Режим смешивания : Сжатый битовый поток
Идентификатор кодека : DX50
Идентификатор кодека/Подсказка : DivX 5
Продолжительность : 1 ч. 39 м.
Битрейт : 1505 Кбит/сек
Ширина : 688 пикселей
Высота : 368 пикселей
Соотношение сторон : 1,85:1
Частота кадров : 25,000 кадров/сек
Цветовое пространство : YUV
Субдискретизация насыщенности : 4:2:0
Битовая глубина : 8 бит
Тип развёртки : Прогрессивная
Метод сжатия : С потерями
Бит/(Пиксели*Кадры) : 0.238
Размер потока : 1,05 Гбайт (77%)
Библиотека кодирования : DivX 6.8.3-6.8.4 (UTC 2008-06-07)Аудио
Идентификатор : 1
Формат : AC-3
Формат/Информация : Audio Coding 3
Расширение режима : CM (complete main)
Параметр Endianness формата : Big
Идентификатор кодека : 2000
Продолжительность : 1 ч. 39 м.
Вид битрейта : Постоянный
Битрейт : 448 Кбит/сек
Каналы : 6 каналов
Расположение каналов : Front: L C R, Side: L R, LFE
Частота : 48,0 КГц
Частота кадров : 31,250 кадров/сек (1536 spf)
Метод сжатия : С потерями
Размер потока : 320 Мбайт (23%)
Выравнивание : Разделение по промежуткам
Продолжительность промежутка : 40 мс. (1,00 видеокадр)
Время предзагрузки промежутка : 500 мс.

Скриншот c названием фильма

Скриншоты

Трейлер

Яндекс.Метрика
Рейтинг@Mail.ru