[ Сегодня на трекере фрилич! Идет свободное скачивание без начисления Download ]

Бармен (Дина Штурманова) [2015 г., комедия, фэнтези, HD DVDRip-AVC, 720p] Лицензия

 

Создавать темы 16-Сен-2016 03:09

-Бармен-- Производство: Россия, Art Pictures Studio, ВайТ Медиа
Режиссер: Дина Штурманова
Жанр: комедия, фэнтези
Год выпуска: 2015 г.
Продолжительность: 01:28:16Российская премьера: 18 июня 2015, «Централ Партнершип»
В ролях: Виталий Гогунский, Иван Охлобыстин, Юлия Паршута, Юрий Стоянов, Жанна Эппле, Константин Крюков, Антон Богданов, Ольга Бузова, Евгения Ярушникова, Константин Федоров-Описание: Вадик мечтает изменить свою скучную жизнь, но страх неудачи и неуверенность в себе мешают парню двигаться к цели. Все меняется, когда Вадик случайно забредает в пустой бар и выпивает коктейль по рецепту загадочного Бармена. Отныне он — мистер Харизма, и весь мир лежит у его ног. Даже красавица Юля, о которой раньше он не смел и мечтать, обратила на него внимание. Новый коктейль — новый талант: сегодня Вадик — интеллектуал, завтра — король танцпола… Вот только действуют волшебные напитки недолго и имеют не очень приятный побочный эффект…-Сэмпл КиноПоиск
Качество видео: HD DVDRip-AVC
Контейнер: MKV
Стандарт разрешения: 720p
Видео кодек: MPEG4 AVC
Аудио кодек: AC3
Видео: 4200 Кбит/сек, 1280х540 (2,40:1), 25,000 кадров/сек
Аудио: 448 Кбит/сек, 6 каналов, 48,0 КГц
Cубтитры: отсутствуют

Доп.Информация:

Источник:DVD9 «Новый Диск»
Общее:
Полное имя : D:MoviesБАРМЕНVIDEO_TSVTS_11_1.VOB
Формат : MPEG-PS

Рецензия

Вчера с парнем ходили в кинотеатр на просмотр фильма «Бармен». Сказать, что удивило просто ничего не сказать. Я была поклонницей режиссера после выхода на экран «Интернов». И посмотрев трейлер «Бармен», я была в предвкушении нечто интересного. И мое чувство меня не подвело. Тем более там играют знаменитые актеры как Кузя (Виталий Гогунский) и, конечно же, звезда «Интернов» Иван Охлобыстин. С такими актёрами было предсказуемо увидеть смешную комедию с остроумными шутками.В комедии есть две сюжетные линии. Первая это Бармен и главный герой, которому в жизни просто не везло и как говориться он был простой серой мышью. Но благодаря коктейлям бармена. Он стал верить в свое яркое будущее. Вторая линия — это, конечно же, любовная как же без этого. Вадим влюбился в девушку, которая ему была не по зубам. С которой он даже не надеялся быть. Было интересно наблюдать как с помощью коктейлей он ее добивался. Даже успел познакомиться с родными. Но он позабыл о побочных эффектах, которые не давали ему расслабиться и настигали в самые интересные моменты.После просмотра осталось хорошее настроение ведь было интересно наблюдать как Вадим справляется со своими трудностями с помощью коктейлей. Как он становится сильным, храбрым, умным и харизматичным. И с легкостью покоряет и убеждает людей. Такими качествами хотел бы обладать каждый человек.Фильм нам дает задуматься, что можно изменить свою жизнь и прожить без всяких там коктейлей. Просто нужно не бояться этого и все получиться. Режиссер смогла это все передать в своем фильме и воплотить в шуточной форме. Что было интересней смотреть нежели, нудный и поучительный фильм. Этот фильм мне кажется будет интересен любому поколению.И напоследок хочется сказать фильм только начали показывать в кинотеатрах и я уверена он наберет большую целевую аудиторию. Ведь в ней нет никакой политики, насилия и пошлости. Это то, что нам просто надоело за все время. Люди стремятся сходить в кино и отдохнуть от обыденной жизни.10 из 10Давно не видела такого легкого фильма с помощью которого можно хорошо провести время.

Media Info

Общее
Уникальный идентификатор : 177235532835743385596427266153053596069 (0x8556526DEC1076BBAF72A884EFBEA9A5)
Полное имя : E:\Бармен\Barmen.2015.720p.HDDVDRip-AVC.[pirat.ca].mkv
Формат : Matroska
Версия формата : Version 2
Размер файла : 2,83 Гбайт
Продолжительность : 1 ч. 28 м.
Общий поток : 4582 Кбит/сек
Дата кодирования : UTC 2016-09-13 15:45:48
Программа кодирования : mkvmerge v7.8.0 ('River Man') 32bit built on Apr 3 2015 12:11:22
Библиотека кодирования : libebml v1.3.1 + libmatroska v1.4.2Видео
Идентификатор : 1
Формат : AVC
Формат/Информация : Advanced Video Codec
Профиль формата : [email protected]/* */
Параметр CABAC формата : Да
Параметр ReFrames формата : 2 кадра
Идентификатор кодека : V_MPEG4/ISO/AVC
Продолжительность : 1 ч. 28 м.
Битрейт : 4200 Кбит/сек
Ширина : 1280 пикселей
Высота : 540 пикселей
Соотношение сторон : 2,40:1
Режим частоты кадров : Постоянный
Частота кадров : 25,000 кадров/сек
Цветовое пространство : YUV
Субдискретизация насыщенности : 4:2:0
Битовая глубина : 8 бит
Тип развёртки : Прогрессивная
Бит/(Пиксели*Кадры) : 0.243
Размер потока : 2,49 Гбайт (88%)
Библиотека кодирования : x264 core 146 r2538 121396c
Настройки программы : cabac=1 / ref=1 / deblock=1:-1:-1 / analyse=0x3:0x113 / me=hex / subme=7 / psy=1 / psy_rd=1.00:0.15 / mixed_ref=0 / me_range=16 / chroma_me=1 / trellis=2 / 8x8dct=1 / cqm=0 / deadzone=21,11 / fast_pskip=1 / chroma_qp_offset=-3 / threads=6 / lookahead_threads=1 / sliced_threads=0 / nr=0 / decimate=1 / interlaced=0 / bluray_compat=0 / constrained_intra=0 / bframes=1 / b_pyramid=0 / b_adapt=2 / b_bias=0 / direct=1 / weightb=1 / open_gop=0 / weightp=2 / keyint=250 / keyint_min=25 / scenecut=40 / intra_refresh=0 / rc_lookahead=40 / rc=abr / mbtree=1 / bitrate=4200 / ratetol=1.0 / qcomp=0.60 / qpmin=0 / qpmax=69 / qpstep=4 / ip_ratio=1.40 / aq=1:1.00
Default : Да
Forced : НетАудио
Идентификатор : 2
Формат : AC-3
Формат/Информация : Audio Coding 3
Расширение режима : CM (complete main)
Параметр Endianness формата : Big
Идентификатор кодека : A_AC3
Продолжительность : 1 ч. 28 м.
Вид битрейта : Постоянный
Битрейт : 448 Кбит/сек
Каналы : 6 каналов
Расположение каналов : Front: L C R, Side: L R, LFE
Частота : 48,0 КГц
Частота кадров : 31,250 кадров/сек (1536 spf)
Метод сжатия : С потерями
Размер потока : 283 Мбайт (10%)
Default : Да
Forced : Нет

Скриншот c названием фильма

Скриншоты

Трейлер

Яндекс.Метрика
Рейтинг@Mail.ru