Забытые игрушки / The Forgotten Toys / Сезон: 1 / Серии: 26 из 26 (Грэхэм Ральф / Graham Ralph) [1997 г., мультфильм, приключения, семейный, SATRip] Dub [Селена Интернешнл]

 

Создавать темы 16-Сен-2016 03:07

-Забытые игрушки / The Forgotten Toys-- Производство: Великобритания, BBC Television Centre, Collingwood O'Hare Entertainment, Hibbert Ralph Animation Limited
Режиссер: Грэхэм Ральф / Graham Ralph
Жанр: мультфильм, приключения, семейный
Год выпуска: 1997 г.
Продолжительность: 00:11:00Мировая премьера: 1997
Российская премьера: 16 ноября 2006, «Союз-Видео»
Перевод: Профессиональный (полное дублирование) [Селена Интернешнл]
Роли озвучивали: Боб Хоскинс, Джоанна Ламли, Эндрю Сакс, Кейт Сакс, Боб Сессионс, Шелли Томпсон-Описание: Что же случается с игрушками, когда о них забывают..? Кукла Энни и плюшевый мишка Тэдди больше не нужны своим владельцам, получившим в подарок на Рождество новые игрушки. Не желая закончить свои дни на помойке, наши герои отправляются на поиски нового дома…-Сэмпл КиноПоиск
Качество видео: SATRip
Контейнер: AVI
Видео кодек: XviD
Аудио кодек: AC3
Видео: 704x528 (1.33:1), 25 fps, XviD build 50 ~1699 kbps avg, 0.18 bit/pixel
Аудио: 48 kHz, AC3 Dolby Digital, 2/0 (L,R) ch, ~192 kbps
Cубтитры: отсутствуют

Media Info

Общее
Полное имя : C:\герои 7\Забытые игрушки\Zabytye igrushki.1997-1999.SATRip.[pirat.ca]\01. Снова забыты.avi
Формат : AVI
Формат/Информация : Audio Video Interleave
Размер файла : 150 Мбайт
Продолжительность : 11 м.
Общий поток : 1902 Кбит/сек
Название фильма : 01. Снова забыты
Программа кодирования : VirtualDubMod 1.5.10.3 | www.virtualdub-fr.org || (build 2550/release)Видео
Идентификатор : 0
Формат : MPEG-4 Visual
Профиль формата : Advanced [email protected]/* */
Параметр BVOP формата : 2
Параметр QPel формата : Нет
Параметр GMC формата : Без точки перехода
Параметр матрицы формата : Default (H.263)
Идентификатор кодека : XVID
Идентификатор кодека/Подсказка : XviD
Продолжительность : 11 м.
Битрейт : 1700 Кбит/сек
Ширина : 704 пикселя
Высота : 528 пикселей
Соотношение сторон : 4:3
Частота кадров : 25,000 кадров/сек
Цветовое пространство : YUV
Субдискретизация насыщенности : 4:2:0
Битовая глубина : 8 бит
Тип развёртки : Прогрессивная
Метод сжатия : С потерями
Бит/(Пиксели*Кадры) : 0.183
Размер потока : 134 Мбайт (89%)
Библиотека кодирования : XviD 1.2.1 (UTC 2008-12-04)Аудио
Идентификатор : 1
Формат : AC-3
Формат/Информация : Audio Coding 3
Расширение режима : CM (complete main)
Параметр Endianness формата : Big
Идентификатор кодека : 2000
Продолжительность : 11 м.
Вид битрейта : Постоянный
Битрейт : 192 Кбит/сек
Каналы : 2 канала
Расположение каналов : Front: L R
Частота : 48,0 КГц
Частота кадров : 31,250 кадров/сек (1536 spf)
Метод сжатия : С потерями
Размер потока : 15,1 Мбайт (10%)
Выравнивание : Разделение по промежуткам
Продолжительность промежутка : 40 мс. (1,00 видеокадр)
Время предзагрузки промежутка : 500 мс.

Скриншот c названием мультфильма

Скриншоты

Трейлер

Яндекс.Метрика
Рейтинг@Mail.ru