Поезд в Пусан / Busanhaeng (Ён Сан-хо / Yeon Sang-ho) [2016 г., ужасы, боевик, триллер, WEB-DL, 720p] MVO

 

Создавать темы 16-Сен-2016 03:02

-Поезд в Пусан / Busanhaeng-- Производство: Корея Южная
Год выпуска: 2016 г.
Жанр: ужасы, боевик, триллер
Продолжительность: 01:58:00Мировая премьера: 13 мая 2016
Российская премьера: 10 ноября 2016, «ПРОвзгляд»
Перевод: Любительский (многоголосый, закадровый)
Режиссер: Ён Сан-хо / Yeon Sang-ho-В ролях: Кон Ю, Ма Дон-сок, Чон Ю-ми, Ким Су-ан, Ким И-сон, Чхве У-щик, Ан Со-хи, Ким Чхан-хван, Чан Хёк-чин, Чон Сок-ён-Описание: Из-за загадочных вспышек вируса объявлено чрезвычайное положение. Скоростной поезд-экспресс в Пусан стал временным убежищем для тех, кто смог вырваться из охваченного загадочной эпидемией Сеула. Случайные пассажиры не предполагали, что их билет на этот поезд станет счастливым, но вот надолго ли — добро пожаловать на борт и постарайтесь остаться в живых.-
Качество видео: WEB-DL
Контейнер: MKV
Стандарт разрешения: 720p
Видео кодек: MPEG4 AVC
Аудио кодек: AC3
Видео: AVC/H.264, 1280x720 (16:9), 29.970 fps, 3000 Kbps (0.109 bit/pixel)
Аудио: AC3, 2 ch, 192 kbps, 48,0 kHz, CBR
Cубтитры: отсутствуют

Media Info

Oбщее
Уникальный идентификатор : 235352972494649648707606999254926214358 (0xB10F556EDB7C2B988A61706DDFF9C4D6)
Полное имя : J:\Поезд в Пусан\Poezd v Pusan.2016.WEB-DL.720p.[pirat.ca].mkv
Формат : Matroska
Версия формата : Version 4 / Version 2
Размер файла : 2,63 Гбайт
Продолжительность : 1 ч. 58 м.
Общий поток : 3188 Кбит/сек
Дата кодирования : UTC 2016-09-12 20:41:31
Программа кодирования : mkvmerge v6.2.0 ('Promised Land') built on Apr 28 2013 12:22:01
Библиотека кодирования : libebml v1.3.0 + libmatroska v1.4.0Видео
Идентификатор : 1
Формат : AVC
Формат/Информация : Advanced Video Codec
Профиль формата : [email protected]/* */
Параметр CABAC формата : Нет
Параметр ReFrames формата : 1 кадр
Идентификатор кодека : V_MPEG4/ISO/AVC
Продолжительность : 1 ч. 58 м.
Битрейт : 3000 Кбит/сек
Ширина : 1280 пикселей
Высота : 720 пикселей
Соотношение сторон : 16:9
Режим частоты кадров : Постоянный
Частота кадров : 29,970 (29970/1000) кадров/сек
Цветовое пространство : YUV
Субдискретизация насыщенности : 4:2:0
Битовая глубина : 8 бит
Тип развёртки : Прогрессивная
Бит/(Пиксели*Кадры) : 0.109
Размер потока : 2,42 Гбайт (92%)
Библиотека кодирования : x264 core 116 r2074 2641b9e
Настройки программы : cabac=0 / ref=1 / deblock=1:0:0 / analyse=0x1:0x131 / me=dia / subme=7 / psy=1 / psy_rd=1.00:0.00 / mixed_ref=0 / me_range=16 / chroma_me=1 / trellis=2 / 8x8dct=0 / cqm=0 / deadzone=21,11 / fast_pskip=1 / chroma_qp_offset=0 / threads=24 / sliced_threads=0 / nr=0 / decimate=1 / interlaced=0 / bluray_compat=0 / constrained_intra=0 / bframes=0 / weightp=0 / keyint=30 / keyint_min=16 / scenecut=40 / intra_refresh=0 / rc_lookahead=30 / rc=abr / mbtree=1 / bitrate=3000 / ratetol=1.0 / qcomp=0.60 / qpmin=1 / qpmax=51 / qpstep=4 / ip_ratio=1.40 / aq=1:1.00
Default : Да
Forced : НетАудио
Идентификатор : 2
Формат : AC-3
Формат/Информация : Audio Coding 3
Расширение режима : CM (complete main)
Параметр Endianness формата : Big
Идентификатор кодека : A_AC3
Продолжительность : 1 ч. 58 м.
Вид битрейта : Постоянный
Битрейт : 192 Кбит/сек
Каналы : 2 канала
Расположение каналов : Front: L R
Частота : 48,0 КГц
Частота кадров : 31,250 кадров/сек (1536 spf)
Метод сжатия : С потерями
Размер потока : 162 Мбайт (6%)
Default : Да
Forced : Нет

Скриншот c названием фильма

Скриншоты

Трейлер

Рейтинг@Mail.ru