[ Сегодня на трекере фрилич! Идет свободное скачивание без начисления Download ]

Пришельцы 3: Взятие Бастилии / Les Visiteurs: La Révolution (Жан-Мари Пуаре / Jean-Marie Poiré) [2016 г., комедия, фантастика, HDRip] Dub [iTunes]

 

Создавать темы 16-Сен-2016 02:56

-Пришельцы 3: Взятие Бастилии / Les Visiteurs: La Révolution-- Производство: Франция, Gaumont, Ouille Productions, Nexus Factory
Год выпуска: 2016 г.
Жанр: комедия, фантастика
Продолжительность: 01:49:29Мировая премьера: 6 апреля 2016
Российская премьера: 7 апреля 2016, «Люксор»
Перевод: Профессиональный (полное дублирование) [iTunes]
Режиссер: Жан-Мари Пуаре / Jean-Marie Poiré-В ролях: Кристиан Клавье, Жан Рено, Франк Дюбоск, Карин Вьяр, Сильви Тестю, Мари-Анн Шазель, Эри Абиттан, Алекс Лутс, Стефани де Крэенкур, Вероника Буланжер-Описание: ВЛегендарные и любимые миллионами комедии «Пришельцы» и «Пришельцы 2: Коридоры времени» получили свое продолжение. Заключительная часть трилогии будет посвящена приключениям героев Жана Рено и Кристиана Клавье во времени, и на этот раз они попадут в одну из самых ярких эпох – время Великой Французской Революции. «Тот самый» качественный французский юмор, по которому скучали, блестящий актерский состав, пронизанный изящной иронией сценарий дают полное основание полагать, что современное прочтение культовых французских картин не оставит равнодушными ценителей жанра, поклонников легендарных актеров и всех любителей первоклассного европейского кино.-
Качество видео: HDRip
Контейнер: AVI
Видео кодек: XviD
Аудио кодек: AC3
Видео: 720x304 (2.37:1), 24 fps, XviD build 73 ~1456 kbps avg, 0.35 bit/pixel
Аудио: AC3, 6 ch, 384 kbps, 48,0 kHz
Cубтитры: отсутствуют

Рецензия

Отличное продолжение в лучших традициях серии!Посмотрел сегодня этот фильм — и он просто чудесен! Услышав музыку в начале фильма аж всплакнул. Конечно, глупо было бы ожидать шуток уровня второй части, поскольку эпоха, в которой проходит действие ленты, не сможет дать такое разнообразие идей, как эпоха современности, да и вообще французская революция — не самое весёлое время. Однако тут нашлось над чем посмеяться! И радует то, что все шутки не являются прямым копированием из предыдущих частей. Если же похожие и есть, то они в значительной мере видоизменены, что делает их новыми и в тоже время является хорошей отсылкой к другим приколам.Всей съёмочной группе удалось воссоздать дух первых двух частей: здесь так же постоянно все ссорятся, ругаются, постоянно что-то ломается и разрушается, во общем происходит фирменное сумасшествие Жана Мари Пуаре и Кристиана Клавье. Более того: фильм снят идентично их предшественникам — все эти крупные планы, быстро сменяющиеся кадры и планы — всё на месте. В общем, фильм снят в лучших традициях.Благодаря используемой эпохе, лента стала не просто комедией, а ещё и полноценным приключением, поскольку время, в которое попали герои, представляет собой реальную опасность их жизням. И были моменты, когда я начинал сопереживать героям, скрестив пальцы. И от этого фильм становился ещё интереснее.Таким образом, данную картину можно смело назвать продолжением 1-2 части с сохранением всех ценностей и традиций серии. Фильм сделан с душой. Это Вам не Терминатор Генезис! И я искренне желаю, чтобы лента хорошо заработала в прокате, поскольку это именно то, ради чего реально стоит сходить в кино и потратить свои деньги на билет.10 из 10P.S. Я единственное не понял почему у фильма рейтинг 12+… Там присутствуют две, хоть и моментальные, но достаточно жестокие сцены, да и ругательства там на уровне (без мата, но всё же!). Как Бэтмену и Супермену дали 16+? За что? Там вообще ничего серьёзного, пугающего и шокирующего ведь нету…

Media Info

Общее
Полное имя : C:\герои 7\Пришельцы 3 Взятие Бастилии\Les Visiteurs.La Revolution.HDRip.[pirat.ca].avi
Формат : AVI
Формат/Информация : Audio Video Interleave
Размер файла : 1,41 Гбайт
Продолжительность : 1 ч. 49 м.
Общий поток : 1848 Кбит/сек
Название фильма : Les Visiteurs.La Revolution.HDRip.[pirat.ca]Видео
Идентификатор : 0
Формат : MPEG-4 Visual
Профиль формата : Advanced [email protected]/* */
Параметр BVOP формата : 1
Параметр QPel формата : Нет
Параметр GMC формата : Без точки перехода
Параметр матрицы формата : Выборочная
Идентификатор кодека : XVID
Идентификатор кодека/Подсказка : XviD
Продолжительность : 1 ч. 49 м.
Битрейт : 1456 Кбит/сек
Ширина : 720 пикселей
Высота : 304 пикселя
Соотношение сторон : 2,35:1
Частота кадров : 24,000 кадра/сек
Цветовое пространство : YUV
Субдискретизация насыщенности : 4:2:0
Битовая глубина : 8 бит
Тип развёртки : Прогрессивная
Метод сжатия : С потерями
Бит/(Пиксели*Кадры) : 0.277
Размер потока : 1,11 Гбайт (79%)
Библиотека кодирования : XviD 73Аудио
Идентификатор : 1
Формат : AC-3
Формат/Информация : Audio Coding 3
Расширение режима : CM (complete main)
Параметр Endianness формата : Big
Идентификатор кодека : 2000
Продолжительность : 1 ч. 49 м.
Вид битрейта : Постоянный
Битрейт : 384 Кбит/сек
Каналы : 6 каналов
Расположение каналов : Front: L C R, Side: L R, LFE
Частота : 48,0 КГц
Частота кадров : 31,250 кадров/сек (1536 spf)
Метод сжатия : С потерями
Размер потока : 301 Мбайт (21%)
Выравнивание : Соединение по промежуткам
Продолжительность промежутка : 64 мс. (1,54 видеокадра)
Время предзагрузки промежутка : 192 мс.
Заголовок : iTunes

Скриншот c названием фильма

Скриншоты

Трейлер

Яндекс.Метрика
Рейтинг@Mail.ru