Пришельцы 3: Взятие Бастилии / Les Visiteurs: La Révolution (Жан-Мари Пуаре / Jean-Marie Poiré) [2016 г., комедия, фантастика, BDRip, 720p] Dub [iTunes]

 

Создавать темы 16-Сен-2016 02:54

-Пришельцы 3: Взятие Бастилии / Les Visiteurs: La Révolution-- Производство: Франция, Gaumont, Ouille Productions, Nexus Factory
Год выпуска: 2016 г.
Жанр: комедия, фантастика
Продолжительность: 01:49:29Мировая премьера: 6 апреля 2016
Российская премьера: 7 апреля 2016, «Люксор»
Перевод: Профессиональный (полное дублирование) [iTunes]
Режиссер: Жан-Мари Пуаре / Jean-Marie Poiré-В ролях: Кристиан Клавье, Жан Рено, Франк Дюбоск, Карин Вьяр, Сильви Тестю, Мари-Анн Шазель, Эри Абиттан, Алекс Лутс, Стефани де Крэенкур, Вероника Буланжер-Описание: Легендарные и любимые миллионами комедии «Пришельцы» и «Пришельцы 2: Коридоры времени» получили свое продолжение. Заключительная часть трилогии будет посвящена приключениям героев Жана Рено и Кристиана Клавье во времени, и на этот раз они попадут в одну из самых ярких эпох – время Великой Французской Революции. «Тот самый» качественный французский юмор, по которому скучали, блестящий актерский состав, пронизанный изящной иронией сценарий дают полное основание полагать, что современное прочтение культовых французских картин не оставит равнодушными ценителей жанра, поклонников легендарных актеров и всех любителей первоклассного европейского кино.-
Качество видео: BDRip-AVC
Контейнер: MKV
Стандарт разрешения: 720p
Видео кодек: MPEG4 AVC
Аудио кодек: AC3
Видео: MPEG-4 AVC, 5686 Кбит/с, 1280x536, 24,000 кадра/сек
Аудио: AC3, 6 ch, 384 Кбит/с, 48,0 КГц
Cубтитры: отсутствуют

Рецензия

Старый французский юморХочется начать с того, что время, в которое попали герои не соответствует названию фильма. Взятие Бастилии произошло 14 июля 1789 года, в то время как граф и его верный слуга попали в 1793 год, в период свирепствования якобинской диктатуры. А теперь непосредственно о фильме.Первые две части комедии оставили хорошее впечатление, став одним из приятных воспоминаний из детства. «Пришельцы 3 радуют старым добрым французским юмором и, конечно, полюбившимся актерским дуэтом Жана Рено и Кристиан Клавье. Начало фильма несколько удивляет наличием кровавых сцен, в сравнении с экшен-кино это не идет, разумеется, но для конкретной комедии решение неожиданное. Сюжет, традиционно, сводится к приключениям незадачливых путешественников во времени и судьбоносными встречами с потомками. На этот раз герои очутились в конце 18 века, в разгар Великой Французской революции, где они сразу же попадают под следствие как враги народа и английские шпионы. Но, граф Годфруа де Монмирай и оруженосец Жакуй не были бы собой, если бы они не смогли сбежать. Как только им это удается, зрителям открывается революционная Франция. Ирония во всем, и в отношении свергнутой аристократии, которая даже во время побега не в состоянии отказаться от предметов роскоши и привычного туалета, тащит с собой клавесин и напудривает парик; и над новыми правителями, теперь уже, республики, которые при всех их лозунгах о равенстве и отказе от богатств, тем не менее предпочитают жить роскошных апартаментах и есть серебряными приборами, да, и напомажены они не меньше, чем те, кому они отрубают головы. Гонфруа Отважный сталкивается с обмельчавшими потомками, носящих панталоны и не имеющих представление о чести и достоинстве. Они погрязли в собственных пороках, а их умы поразила праздность. Жакуй напротив, нашел своего потомка, заметно улучшившим свое положение в обществе, в отличие от предка, но пошло ли это ему на пользу второй вопрос.В целом, режиссер Жан-Мари Пуаре не показал ничего нового, он прошел по проторенной дорожке, делая ставку на обаяние актеров и симпатии к ним зрителей. Жан Рено и Кристиан Клавье были как всегда на высоте, в конце концов, эти персонажи им уже как родные, но видно, что запал уже не тот, возраст сказывается. Фильм в этом плане не спасает даже оговорка о том, что герои стареют, находясь вне своего времени. Жан Рено при всём своем росте и широкоплечии уже не производит впечатление могучего рыцаря, а Кристиан Клавье, увы, уже не тянет на шустрого оруженосца. Подводя итог хочется сказать следующее: фильм вызывает положительные эмоции, и не смотря на наивный юмор и старый сюжет, есть над чем посмеяться.

Media Info

Общее
Уникальный идентификатор : 223727485423477564783936582103542357961 (0xA85058AAC8A4BE05B8F8A06B08FD5FC9)
Полное имя : C:\герои 7\Пришельцы 3 Взятие Бастилии\Les Visiteurs.La Revolution.2016.BDRip.720p.[pirat.ca].mkv
Формат : Matroska
Версия формата : Version 2
Размер файла : 3,51 Гбайт
Продолжительность : 1 ч. 49 м.
Общий поток : 4590 Кбит/сек
Дата кодирования : UTC 2016-09-14 13:43:24
Программа кодирования : mkvmerge v5.3.0 ('I could have danced') built on Feb 9 2012 10:38:07
Библиотека кодирования : libebml v1.2.3 + libmatroska v1.3.0Видео
Идентификатор : 1
Формат : AVC
Формат/Информация : Advanced Video Codec
Профиль формата : [email protected]/* */
Параметр CABAC формата : Да
Параметр ReFrames формата : 5 кадров
Идентификатор кодека : V_MPEG4/ISO/AVC
Продолжительность : 1 ч. 49 м.
Битрейт : 4206 Кбит/сек
Ширина : 1280 пикселей
Высота : 536 пикселей
Соотношение сторон : 2,40:1
Режим частоты кадров : Постоянный
Частота кадров : 24,000 кадра/сек
Цветовое пространство : YUV
Субдискретизация насыщенности : 4:2:0
Битовая глубина : 8 бит
Тип развёртки : Прогрессивная
Бит/(Пиксели*Кадры) : 0.255
Размер потока : 3,15 Гбайт (90%)
Библиотека кодирования : x264 core 148 r2705 3f5ed56
Настройки программы : cabac=1 / ref=5 / deblock=1:0:0 / analyse=0x3:0x113 / me=umh / subme=8 / psy=1 / psy_rd=1.00:0.00 / mixed_ref=1 / me_range=16 / chroma_me=1 / trellis=2 / 8x8dct=1 / cqm=0 / deadzone=21,11 / fast_pskip=1 / chroma_qp_offset=-2 / threads=12 / lookahead_threads=2 / sliced_threads=0 / nr=0 / decimate=1 / interlaced=0 / bluray_compat=0 / constrained_intra=0 / bframes=3 / b_pyramid=2 / b_adapt=2 / b_bias=0 / direct=3 / weightb=1 / open_gop=0 / weightp=2 / keyint=250 / keyint_min=24 / scenecut=40 / intra_refresh=0 / rc_lookahead=50 / rc=2pass / mbtree=1 / bitrate=4206 / ratetol=1.0 / qcomp=0.60 / qpmin=0 / qpmax=69 / qpstep=4 / cplxblur=20.0 / qblur=0.5 / ip_ratio=1.40 / aq=1:1.00
Язык : English
Default : Нет
Forced : НетАудио
Идентификатор : 2
Формат : AC-3
Формат/Информация : Audio Coding 3
Расширение режима : CM (complete main)
Параметр Endianness формата : Big
Идентификатор кодека : A_AC3
Продолжительность : 1 ч. 49 м.
Вид битрейта : Постоянный
Битрейт : 384 Кбит/сек
Каналы : 6 каналов
Расположение каналов : Front: L C R, Side: L R, LFE
Частота : 48,0 КГц
Частота кадров : 31,250 кадров/сек (1536 spf)
Метод сжатия : С потерями
Размер потока : 301 Мбайт (8%)
Заголовок : DUB | МОСФИЛЬМ-мастер по заказу Люксор 2016
Язык : Russian
Default : Да
Forced : ДаМеню
00:00:00.000 : en:00:00:00.000
00:11:30.208 : en:00:11:30.208
00:18:02.250 : en:00:18:02.250
00:27:02.792 : en:00:27:02.792
00:36:10.708 : en:00:36:10.708
00:40:20.875 : en:00:40:20.875
00:52:28.208 : en:00:52:28.208
00:57:19.208 : en:00:57:19.208
01:07:22.042 : en:01:07:22.042
01:23:56.667 : en:01:23:56.667
01:36:39.750 : en:01:36:39.750
01:44:40.542 : en:01:44:40.542

Скриншот c названием фильма

Скриншоты

Трейлер

Яндекс.Метрика
Рейтинг@Mail.ru