Хорошие девочки не взрываются N / ice Girls Don't Explode (Чак Мартинес / Chuck Martinez) [1987 г., фантастика, комедия, DVDRip] DVO [REN-TV]

 

Создавать темы 16-Сен-2016 02:49

-Хорошие девочки не взрываются N / ice Girls Don't Explode-- Производство: США, Nice Girls Films
Год выпуска: 1987 г.
Жанр: фантастика, комедия
Продолжительность: 01:18:36Мировая премьера: 15 октября 1987
Перевод: Профессиональный (двухголосый, закадровый) [REN-TV]
Режиссер: Чак Мартинес / Chuck Martinez-В ролях: Барбара Харрис, Мишель Майринк, Уильям О’Лири, Уоллес Шоун, Джеймс Нардини, Белинда Уэллс, Ирвин Кийес, Марго Грэй-Описание: Мама девушки Эйприл разработала сложную схему, чтобы оградить свою дочь от мужчин и секса. Каждый раз, когда Эйприл попадает в интимную обстановку, ее мамочка устраивает дистанционно управляемые взрывы, чтобы отпугнуть дочку от назревающего контакта.
В конце концов Энди, друг детства Эйприл скептически относящийся к ее предполагаемой взрывоопасности, доказывает девушке, что дело вовсе не в ней, а в ее матери, которая собственноручно делает зажигательные бомбы…-
Качество видео: DVDRip
Контейнер: AVI
Видео кодек: XviD
Аудио кодек: AC3
Видео: 672x514 (1.31:1), 29.970 fps, XviD build 46 ~1106 kbps avg, 0.11 bit/pixel
Аудио: 48 kHz, AC3 Dolby Digital, 2/0 (L,R) ch, ~192 kbps
Cубтитры: отсутствуют

Media Info

Общее
Полное имя : C:\герои 7\Хорошие девочки не взрываются\Nice Girls Don't Explode.1987.DVDRip .[pirat.ca].avi
Формат : AVI
Формат/Информация : Audio Video Interleave
Размер файла : 736 Мбайт
Продолжительность : 1 ч. 18 м.
Общий поток : 1310 Кбит/сек
Название фильма : Nice Girls Don't Explode.1987.DVDRip .[pirat.ca]
Программа кодирования : VirtualDubModRus 1.5.10.2 (build 2542/release)Видео
Идентификатор : 0
Формат : MPEG-4 Visual
Профиль формата : [email protected]/* */
Параметр BVOP формата : Нет
Параметр QPel формата : Нет
Параметр GMC формата : Без точки перехода
Параметр матрицы формата : Default (H.263)
Идентификатор кодека : XVID
Идентификатор кодека/Подсказка : XviD
Продолжительность : 1 ч. 18 м.
Битрейт : 1106 Кбит/сек
Ширина : 672 пикселя
Высота : 514 пикселей
Соотношение сторон : 4:3
Частота кадров : 29,970 (30000/1001) кадров/сек
Цветовое пространство : YUV
Субдискретизация насыщенности : 4:2:0
Битовая глубина : 8 бит
Тип развёртки : Прогрессивная
Метод сжатия : С потерями
Бит/(Пиксели*Кадры) : 0.107
Размер потока : 622 Мбайт (84%)
Библиотека кодирования : XviD 1.1.2 (UTC 2006-11-01)Аудио
Идентификатор : 1
Формат : AC-3
Формат/Информация : Audio Coding 3
Расширение режима : CM (complete main)
Параметр Endianness формата : Big
Идентификатор кодека : 2000
Продолжительность : 1 ч. 18 м.
Вид битрейта : Постоянный
Битрейт : 192 Кбит/сек
Каналы : 2 канала
Расположение каналов : Front: L R
Частота : 48,0 КГц
Частота кадров : 31,250 кадров/сек (1536 spf)
Метод сжатия : С потерями
Задержка видео : 150 мс.
Размер потока : 108 Мбайт (15%)
Выравнивание : Разделение по промежуткам
Продолжительность промежутка : 33 мс. (1,00 видеокадр)
Время предзагрузки промежутка : 500 мс.
Заголовок : REN-TV/ТНТ: Игорь Тарадайкин и Ирина Савина

Скриншот c названием фильма

Скриншоты

Трейлер

Яндекс.Метрика
Рейтинг@Mail.ru