[ Сегодня на трекере фрилич! Идет свободное скачивание без начисления Download ]

Нарко (Барыги) / Narcos / Сезон: 2 / Серии: 1-3 (10) (Андрес Байс / Andrés Baiz, ...) [2016 г., криминал, драма, WEB-DLRip, 1080p] MVO (LostFilm) + Original (Eng) + Sub (Eng) [Обновляемая]

 

Создавать темы 16-Сен-2016 02:45

-Нарко (Барыги) / Narcos
«There's no business like blow business»
(1 сезон)
-- Производство: США
Жанр: криминал, драма
Год выпуска: 2016 г.
Продолжительность: 3x ~00:50:00Перевод: Профессиональный (многоголосый, закадровый) [LostFilm]
Оригинальный аудиопоток: английскийРежиссер: Андрес Байс / Andrés Baiz, Фернандо Коимбра / Fernando Coimbra, ...-В ролях: Вагнер Моура, Бойд Холбрук, Педро Паскаль, Джоанна Кристи, Морис Комт, Jasón Chad, Паулина Гайтан, Даниэль Кеннеди, Ричард Т. Джонс, Хуан Мурсия, ...-Описание: Второй сезон сериала "Нарко" продолжит хронологически восстанавливать события жизни Пабло Эскобара. История ведется не только со стороны Эскобара, но и с точки зрения агентов специальных служб, которые непрерывно пытаются его обезвредить. Причем вопрос уже стоит не в попытках посадить наркобарона в тюрьму, а именно уничтожить его.- -Качество видео: WEB-DLRip
Контейнер: MKV
Стандарт разрешения: 1080p
Видео кодек: H.264/AVC
Аудио кодек: AC3
Видео: 1920×1080 at 23.976 fps, ~10,0 Mbps avg
Аудио: Russian: 48 kHz, AC3, 2 ch, ~384.00.00 kbps avg |Многоголосый закадровый, LostFilm|
Аудио #2: English: 48 kHz, AC3, 3/2 (L,C,R,l,r) + LFE ch, ~640.00.00 kbps avgCубтитры: английские, вшитые неотключаемые (на испанскую речь)

Список серий

Episode 01. Free at Last / Свободен наконец
Episode 02. Cambalache / Грошовый обмен
Episode 03. Our Man in Madrid / Наш человек в Мадриде

Media Info

Код:
Format                      : Matroska
Format version              : Version 4 / Version 2
File size                   : 4.15 GiB
Duration                    : 52mn 44s
Overall bit rate            : 11.3 Mbps
Movie name                  : Narcos.S02E01
Encoded date                : UTC 2016-09-05 19:44:37
Writing application         : mkvmerge v8.2.0 ('World of Adventure') 64bit
Writing library             : libebml v1.3.1 + libmatroska v1.4.2
Attachements                : Cover
DURATION                    : 00:52:44.448000000
NUMBER_OF_FRAMES            : 98889
NUMBER_OF_BYTES             : 151893504
_STATISTICS_WRITING_APP     : mkvmerge v8.2.0 ('World of Adventure') 64bit
_STATISTICS_WRITING_DATE_UT : 2016-09-05 19:44:37
_STATISTICS_TAGS            : BPS DURATION NUMBER_OF_FRAMES NUMBER_OF_BYTESVideo
ID                          : 1
Format                      : AVC
Format/Info                 : Advanced Video Codec
Format profile              : [email protected]/*  */
Format settings, CABAC      : Yes
Format settings, ReFrames   : 4 frames
Codec ID                    : V_MPEG4/ISO/AVC
Duration                    : 52mn 44s
Bit rate                    : 10.0 Mbps
Width                       : 1 920 pixels
Height                      : 1 080 pixels
Display aspect ratio        : 16:9
Frame rate mode             : Constant
Frame rate                  : 23.976 fps
Color space                 : YUV
Chroma subsampling          : 4:2:0
Bit depth                   : 8 bits
Scan type                   : Progressive
Bits/(Pixel*Frame)          : 0.201
Stream size                 : 3.69 GiB (89%)
Writing library             : x264 core 148 r2705kMod 3f5ed56
Encoding settings           : cabac=1 / ref=4 / deblock=1:-1:-1 / analyse=0x3:0x113 / me=umh / subme=9 / psy=1 / fade_compensate=0.00 / psy_rd=1.00:0.00 / mixed_ref=1 / me_range=16 / chroma_me=1 / trellis=1 / 8x8dct=1 / cqm=0 / deadzone=21,11 / fast_pskip=1 / chroma_qp_offset=-2 / threads=18 / lookahead_threads=1 / sliced_threads=0 / nr=0 / decimate=1 / interlaced=0 / bluray_compat=0 / constrained_intra=0 / fgo=0 / bframes=3 / b_pyramid=2 / b_adapt=2 / b_bias=0 / direct=3 / weightb=1 / open_gop=0 / weightp=2 / keyint=240 / keyint_min=23 / scenecut=40 / intra_refresh=0 / rc_lookahead=50 / rc=crf / mbtree=1 / crf=17.0000 / qcomp=0.60 / qpmin=0 / qpmax=69 / qpstep=4 / vbv_maxrate=62500 / vbv_bufsize=78125 / crf_max=0.0 / nal_hrd=none / filler=0 / ip_ratio=1.40 / aq=1:1.00
Language                    : English
Default                     : Yes
Forced                      : NoAudio #1
ID                          : 2
Format                      : AC-3
Format/Info                 : Audio Coding 3
Mode extension              : CM (complete main)
Format settings, Endianness : Big
Codec ID                    : A_AC3
Duration                    : 52mn 44s
Bit rate mode               : Constant
Bit rate                    : 384 Kbps
Channel(s)                  : 2 channels
Channel positions           : Front: L R
Sampling rate               : 48.0 KHz
Bit depth                   : 16 bits
Compression mode            : Lossy
Stream size                 : 145 MiB (3%)
Title                       : LostFilm
Language                    : Russian
Default                     : Yes
Forced                      : NoAudio #2
ID                          : 3
Format                      : AC-3
Format/Info                 : Audio Coding 3
Mode extension              : CM (complete main)
Format settings, Endianness : Big
Codec ID                    : A_AC3
Duration                    : 52mn 44s
Bit rate mode               : Constant
Bit rate                    : 640 Kbps
Channel(s)                  : 6 channels
Channel positions           : Front: L C R, Side: L R, LFE
Sampling rate               : 48.0 KHz
Bit depth                   : 16 bits
Compression mode            : Lossy
Stream size                 : 241 MiB (6%)
Language                    : English
Default                     : No
Forced                      : No

Скриншот c названием фильма

Скриншоты

Яндекс.Метрика
Рейтинг@Mail.ru