[ Сегодня на трекере фрилич! Идет свободное скачивание без начисления Download ]

Заповеди / Commandments (Дэниэл Таплитц / Daniel Taplitz) [1997 г., драма, мелодрама, комедия, DVDRip] MVO [Фильм-экспорт (СТС)]

 

Создавать темы 16-Сен-2016 02:41

-Заповеди / Commandments-- Производство: США, Northern Lights Entertainment, Universal Pictures, ...
Год выпуска: 1997 г.
Жанр: драма, мелодрама, комедия
Продолжительность: 01:24:06Мировая премьера: 2 мая 1997
Перевод: Профессиональный (многоголосый, закадровый) [Фильм-экспорт (СТС)]
Режиссер: Дэниэл Таплитц / Daniel Taplitz-В ролях: Эйдан Куинн (Seth Warner), Кортни Кокс (Rachel Luce), Энтони ЛаПалья (Harry Luce), Луис Зорик (Rudy Warner), Элис Драммонд (Mrs. Mann), Том Элдридж (Mr. Mann), Пэт МакНамара (Police Chief Warren), Памела Грэй (Melissa Murphy), Джек Гилпин (Gordon Bloom), Эми Седарис (Scholar)-Описание: Комедия с библейским подтекстом — жизнь главного героя Сета Уорнера складывается таким образом, что он одну за другой нарушает все 10 заповедей, дабы привлечь внимание Господа. В первый раз зритель видит его на крыше, орущим: «Я не верю в бога», и обратившим взор в небеса под проливным дождем.Его пытаются отговорить от самоубийства, но от этого греха его спасает шаровая молния. Когда Сет оживает в больнице на следующий день, он окидывает мысленным взглядом свою жизнь. Жена исчезла, вроде бы утонула; Из клиники, где он работал врачом, его выгнали за «очерствевшее сердце«; любимая собака после удара молнии стала калекой. После этого и созревает окончательное решение бросить вызов Всевышнему.Раз уж Создатель решил расправиться с ним, так уж Сет тоже повеселится напоследок. Конечно, это не «Семь», от которого просто стынет кровь в жилах, но смотрится на одном дыхании, чему во многом способствует блестящая игра актеров.-
Качество видео: DVDRip
Контейнер: AVI
Видео кодек: XviD
Аудио кодек: AC3
Видео: 640x352 (1.82:1), 25 fps, XviD Final 1.0.2 (build 36) ~956 kbps avg, 0.17 bit/pixel
Аудио: 48 kHz, AC3 Dolby Digital, 2/0 (L,R) ch, ~192 kbps
Cубтитры: отсутствуют

Награды

Сатурн, 1998 год
Номинации (1):
Лучшая музыка

Рецензия

Совершенно случайно наткнулась на этот фильм. Неожиданно увидела, что в нем играет Кортни Кокс, фильмы с которой мне хотелось бы посмотреть.Сет (Эйдан Куинн), герой фильма, совсем подавлен. Его жизнь действительно потеряла смысл, и для чего ему жить, непонятно. Сет перестает верить в бога и намеренно решает нарушить все десять заповедей. Нарушая их одну за другой, он, однако же, не чувствует облегчения. После того, как дом Сета был разрушен стихией, его временно приютила в своем доме сестра его жены, Рэйчел. Ее муж, Гарри, успешный журналист, довольный жизнью и собой, говорит Сету о том, что сам он каждый день еще до обеда нарушает по несколько заповедей, но его жизнь прекрасна. У него есть все, что ему хотелось бы. Кажется, у Сета нет ни шанса зацепиться за жизнь. Он очень любил свою жену Карен. Казалось, его жизнь с ней, та жизнь, которая было до ее исчезновения — это то, о чем только мечтают. И она закончилась. Сет приходит к той точке, где исчезает неуверенность, желание бороться или, наоборот, смириться. И тут …как раз и происходит чудо.Может, человек, лишенный всего, смотрит на мир совсем другими глазами? Лишенный желаний, боли и попыток что-то изменить. В 90-е снимали очень добрые, где-то наивные, и обязательно оптимистичные фильмы. Этот не исключение. Это добрый, мягкий фильм на совсем непростую тему смысла жизни.8 из 10

Media Info

Общее
Полное имя : J:\Заповеди\Zapovedi.1997.DVDRip.[pirat.ca].avi
Формат : AVI
Формат/Информация : Audio Video Interleave
Размер файла : 697 Мбайт
Продолжительность : 1 ч. 24 м.
Общий поток : 1158 Кбит/сек
Программа кодирования : VirtualDubMod 1.5.10.3 | www.virtualdub-fr.org || (build 2550/release)Видео
Идентификатор : 0
Формат : MPEG-4 Visual
Профиль формата : Advanced [email protected]/* */
Параметр BVOP формата : 1
Параметр QPel формата : Нет
Параметр GMC формата : Без точки перехода
Параметр матрицы формата : Default (MPEG)
Идентификатор кодека : XVID
Идентификатор кодека/Подсказка : XviD
Продолжительность : 1 ч. 24 м.
Битрейт : 957 Кбит/сек
Ширина : 640 пикселей
Высота : 352 пикселя
Соотношение сторон : 16:9
Частота кадров : 25,000 кадров/сек
Частота кадров в оригинале : 23,976 кадра/сек
Цветовое пространство : YUV
Субдискретизация насыщенности : 4:2:0
Битовая глубина : 8 бит
Тип развёртки : Прогрессивная
Метод сжатия : С потерями
Бит/(Пиксели*Кадры) : 0.170
Размер потока : 576 Мбайт (83%)
Библиотека кодирования : XviD 1.0.2 (UTC 2004-08-29)Аудио
Идентификатор : 1
Формат : AC-3
Формат/Информация : Audio Coding 3
Расширение режима : CM (complete main)
Параметр Endianness формата : Big
Идентификатор кодека : 2000
Продолжительность : 1 ч. 24 м.
Вид битрейта : Постоянный
Битрейт : 192 Кбит/сек
Каналы : 2 канала
Расположение каналов : Front: L R
Частота : 48,0 КГц
Частота кадров : 31,250 кадров/сек (1536 spf)
Метод сжатия : С потерями
Размер потока : 116 Мбайт (17%)
Выравнивание : Разделение по промежуткам
Продолжительность промежутка : 40 мс. (1,00 видеокадр)
Время предзагрузки промежутка : 500 мс.
Заголовок : СТС: Александр Клюквин, Сергей Быстрицкий, Виктор Петров и Ольга Сирина

Скриншот c названием фильма

Скриншоты

Трейлер

Яндекс.Метрика
Рейтинг@Mail.ru