[ Сегодня на трекере фрилич! Идет свободное скачивание без начисления Download ]

Кволик / Wabbit / Сезон: 1 / Серии: 7 из 7 (Скотт Берн / Scott Bern, ...) [2015 г., мультфильм, комедия буффонада, 6+, WEB-DL, 1080p] MVO [GoASound] + Original (Eng)

 

Создавать темы 16-Сен-2016 02:37

-Кволик / Wabbit-- Производство: США, Warner Bros. Animation
Режиссер: Скотт Берн / Scott Bern, ...
Жанр: мультфильм, комедия буффонада, 6+
Год выпуска: 2015 г.
Продолжительность: 00:11:27Перевод: Профессиональный (многоголосый, закадровый) [GoASound]
Оригинальный аудиопоток: английскийРоли озвучивали: Джефф Бергман / Jeff Bergman, Ди Брэдли Бейкер / Dee Bradley Baker, Дж. Пи. Карляк / JP Karliak, ...-Описание: В этом мультсериале, Луни Тьюнз покидает мир ситкома и возвращаются к своим корням - комедийной буффонаде. Каждая серия "Кволика" содержит в себе 2 короткометражки, в каждой из которых Багз - главный герой.
Другие персонажи, как Вилли Койот и Йосемит Сэм, лишь досаждают ему. Некоторым персонажам добавили новые черты характера: В то время, как Вилли Койот - это сосед Багса, мистер-всезнайка; Тасманский Дьявол - работающий бухгалтер, то есть, он подавляет свою истинную личность. Были добавлены новые персонажи-друзья кролика - Белка по имени Сквикс и детская версия Бигфута. Не обойдется и без стычек со злодеями, но и тут придут на помощь верные друзья. Багсу предстоит столкнуться с ниндзя, варварами, терминаторами, и даже со смертью в виде кролика!-Сэмпл
Качество видео: WEB-DL
Контейнер: MKV
Стандарт разрешения: 1080p
Видео кодек: MPEG4 AVC
Аудио кодек: AC3
Видео: AVC/H.264, 1916x1076, ~5000 kbps
Аудио: AC3, 48 kHz, 2 channels, 192 kbps
Аудио #2: AAC, 48 kHz, 2 channels, 160 kbps
Cубтитры: русские, английские
Формат субтитров: softsub (SRT)
Доп. информация о субтитрах: включаемые

Media Info

Общее
Уникальный идентификатор : 214637552902174722221335917200588988045 (0xA179B0646DE7C509B81DDC8845A0DE8D)
Полное имя : J:\Кволик\Kvolik.S01.2015.[GoASound].[pirat.ca]\S01E01.Buddha.Bugs-Now.and.Zen.1080p.WEB-DL.DD5.1.H.264-EsQ.mkv
Формат : Matroska
Версия формата : Version 4 / Version 2
Размер файла : 477 Мбайт
Продолжительность : 11 м.
Общий поток : 5816 Кбит/сек
Дата кодирования : UTC 2016-08-13 21:36:49
Программа кодирования : mkvmerge v7.0.0 ('Where We Going') 64bit built on Jun 9 2014 15:16:27
Библиотека кодирования : libebml v1.3.0 + libmatroska v1.4.1Видео
Идентификатор : 1
Формат : AVC
Формат/Информация : Advanced Video Codec
Профиль формата : [email protected]/* */
Параметр CABAC формата : Да
Параметр ReFrames формата : 4 кадра
Идентификатор кодека : V_MPEG4/ISO/AVC
Продолжительность : 11 м.
Битрейт : 5239 Кбит/сек
Ширина : 1916 пикселей
Высота : 1076 пикселей
Соотношение сторон : 16:9
Режим частоты кадров : Постоянный
Частота кадров : 23,976 (23976/1000) кадра/сек
Цветовое пространство : YUV
Субдискретизация насыщенности : 4:2:0
Битовая глубина : 8 бит
Тип развёртки : Прогрессивная
Бит/(Пиксели*Кадры) : 0.106
Размер потока : 429 Мбайт (90%)
Язык : English
Default : Да
Forced : Нет
Цветовой диапазон : Limited
Основные цвета : BT.709
Характеристики трансфера : BT.709
Коэффициенты матрицы : BT.709Аудио #1
Идентификатор : 2
Формат : AC-3
Формат/Информация : Audio Coding 3
Расширение режима : CM (complete main)
Параметр Endianness формата : Big
Идентификатор кодека : A_AC3
Продолжительность : 11 м.
Вид битрейта : Постоянный
Битрейт : 192 Кбит/сек
Каналы : 2 канала
Расположение каналов : Front: L R
Частота : 48,0 КГц
Частота кадров : 31,250 кадров/сек (1536 spf)
Метод сжатия : С потерями
Размер потока : 15,7 Мбайт (3%)
Заголовок : MVO - GoASound
Default : Да
Forced : НетАудио #2
Идентификатор : 3
Формат : AC-3
Формат/Информация : Audio Coding 3
Расширение режима : CM (complete main)
Параметр Endianness формата : Big
Идентификатор кодека : A_AC3
Продолжительность : 11 м.
Вид битрейта : Постоянный
Битрейт : 384 Кбит/сек
Каналы : 6 каналов
Расположение каналов : Front: L C R, Side: L R, LFE
Частота : 48,0 КГц
Частота кадров : 31,250 кадров/сек (1536 spf)
Метод сжатия : С потерями
Размер потока : 31,5 Мбайт (7%)
Язык : English
Default : Нет
Forced : НетТекст #1
Идентификатор : 4
Формат : ASS
Идентификатор кодека : S_TEXT/ASS
Идентификатор кодека/Информация : Advanced Sub Station Alpha
Продолжительность : 10 м.
Битрейт : 124 бит/сек
Count of elements : 136
Метод сжатия : Без потерь
Размер потока : 9,97 Кбайт (0%)
Язык : Russian
Default : Нет
Forced : НетТекст #2
Идентификатор : 5
Формат : UTF-8
Идентификатор кодека : S_TEXT/UTF8
Идентификатор кодека/Информация : UTF-8 Plain Text
Продолжительность : 11 м.
Битрейт : 65 бит/сек
Count of elements : 243
Размер потока : 5,38 Кбайт (0%)
Язык : English
Default : Нет
Forced : Нет

Скриншот c названием мультфильма

Скриншоты

Трейлер

Яндекс.Метрика
Рейтинг@Mail.ru