[ Сегодня на трекере фрилич! Идет свободное скачивание без начисления Download ]

Ральф 3D / Wreck-It Ralph 3D (Рич Мур / Rich Moore) [2012 г., мультфильм, комедия, семейный, BDRip 1080p] [Вертикальная анаморфная стереопара / Half OverUnder] Dub [Лицензия] + Subs (Rus, Eng) + Original (Eng)

 

Создавать темы 05-Янв-2014 10:45

-Ральф 3D
Wreck-It Ralph 3D
«Хорошего друга должно быть много»
-- Производство: США / Walt Disney Animation Studios
Год выпуска: 2012 г.
Жанр: мультфильм, комедия, семейный
Продолжительность: 01:41:16
Мировая премьера: 1 ноября 2012
Российская премьера: 1 ноября 2012, «WDSSPR»
Дата выхода DVD: 5 марта 2013, «Уолт Дисней Компани СНГ»
Дата выхода Blu-Ray: 5 марта 2013, «Уолт Дисней Компани СНГ»
Перевод: Профессиональный (полное дублирование) [Лицензия]
Режиссер: Рич Мур / Rich Moore-В ролях: Джон Си Райли, Джейн Линч, Деннис Хейсбёрт, Сара Силверман, Стефани Скотт, Брэндон Т. Джексон, Джек МакБрайер, Скайлар Эстин, Скотт Менвилль, Джек Эйнджел-Описание: Ральф — второстепенный персонаж восьмибитной компьютерной игры, и ему надоело находиться в тени главного героя, мастера на все руки Феликса, который всегда появляется, чтобы «исправить» ситуацию! После тридцати лет добросовестной работы в роли злодея, в течение которых все похвалы выпадали на долю Феликса, Ральф больше не хочет быть плохим.
Он решает отправиться в путешествие по аркадным играм разных жанров, чтобы доказать всем, что и он тоже может быть героем. На своем пути Ральф встречает героев разных игр — хладнокровную сержанта Калхун из игры Hero’s Duty, оберегающую планету от нашествия инопланетных захватчиков, и сладкую на вид, но острую на язычок Сластену фон Дю, чье существование в гоночном симуляторе Sugar Rush внезапно оказывается под угрозой. Наконец-то Ральфу выпадает шанс показать, что он умеет не только разрушать!- -Качество видео: BDRip 1080p
Контейнер: MKV
Формат 3D: Вертикальная анаморфная стереопара / Half OverUnder
Видео кодек: H.264
Аудио кодек: AC3, DTS
Видео: AVC, 1920x1080 (16:9), 23.976 fps, 12.5 Mbps (0.251 bit/pixel)
Аудио: Rus: AC-3, 48.0 KHz, 6 ch, 640 Kbps, CBR (дубляж [Лицензия])
Аудио #2: Eng: DTS, 48.0 KHz, 6 ch, 1 509 Kbps, CBR (оригинал)
Cубтитры: Русские (2 вида), английские (2 вида)

Media Info

Общее
Уникальный идентификатор : 250074174168952822190771897732419269687 (0xBC2288B6845EED0ABA277EF769BFB437)
Полное имя : G:\Wreck.It.Ralph.3D.2012.1080p.BluRay.Half-OU[pirat.ca].mkv
Формат : Matroska
Версия формата : Version 2
Размер файла : 10,4 Гбайт
Продолжительность : 1 ч. 41 м.
Общий поток : 14,6 Мбит/сек
Дата кодирования : UTC 2013-03-13 11:55:07
Программа кодирования : mkvmerge v5.8.0 ('No Sleep / Pillow') built on Sep 2 2012 15:37:04
Библиотека кодирования : libebml v1.2.3 + libmatroska v1.3.0
Видео
Идентификатор : 1
Формат : AVC
Формат/Информация : Advanced Video Codec
Профиль формата : [email protected]
Параметр CABAC формата : Да
Параметр ReFrames формата : 4 кадра
Идентификатор кодека : V_MPEG4/ISO/AVC
Продолжительность : 1 ч. 41 м.
Битрейт : 12,5 Мбит/сек
Ширина : 1920 пикселей
Высота : 1080 пикселей
Соотношение сторон : 16:9
Режим частоты кадров : Постоянный
Частота кадров : 23,976 кадра/сек
Цветовое пространство : YUV
Субдискретизация насыщенности : 4:2:0
Битовая глубина : 8 бит
Тип развёртки : Прогрессивная
Бит/(Пиксели*Кадры) : 0.251
Размер потока : 8,63 Гбайт (83%)
Библиотека кодирования : x264 core 129 r2245 bc13772
Настройки программы : cabac=1 / ref=4 / deblock=1:-3:-3 / analyse=0x3:0x113 / me=tesa / subme=11 / psy=1 / psy_rd=0.90:0.00 / mixed_ref=1 / me_range=32 / chroma_me=1 / trellis=2 / 8x8dct=1 / cqm=0 / deadzone=21,11 / fast_pskip=0 / chroma_qp_offset=-2 / threads=12 / lookahead_threads=2 / sliced_threads=0 / nr=0 / decimate=0 / interlaced=0 / bluray_compat=0 / constrained_intra=0 / bframes=7 / b_pyramid=2 / b_adapt=2 / b_bias=0 / direct=3 / weightb=1 / open_gop=0 / weightp=2 / keyint=250 / keyint_min=23 / scenecut=40 / intra_refresh=0 / rc=2pass / mbtree=0 / bitrate=12500 / ratetol=1.0 / qcomp=0.60 / qpmin=10 / qpmax=69 / qpstep=4 / cplxblur=20.0 / qblur=0.5 / ip_ratio=1.40 / pb_ratio=1.30 / aq=1:0.70
Язык : English
Default : Да
Forced : Нет
Аудио #1
Идентификатор : 2
Формат : AC-3
Формат/Информация : Audio Coding 3
Расширение режима : CM (complete main)
Параметр Endianness формата : Big
Идентификатор кодека : A_AC3
Продолжительность : 1 ч. 41 м.
Вид битрейта : Постоянный
Битрейт : 640 Кбит/сек
Каналы : 6 каналов
Расположение каналов : Front: L C R, Side: L R, LFE
Частота : 48,0 КГц
Битовая глубина : 16 бит
Метод сжатия : С потерями
Размер потока : 463 Мбайт (4%)
Заголовок : DD 5.1 @ 640 kbps - Dub, BD CEE
Язык : Russian
Default : Нет
Forced : Да
Аудио #2
Идентификатор : 3
Формат : DTS
Формат/Информация : Digital Theater Systems
Режим : 16
Параметр Endianness формата : Big
Идентификатор кодека : A_DTS
Продолжительность : 1 ч. 41 м.
Вид битрейта : Постоянный
Битрейт : 1509 Кбит/сек
Каналы : 6 каналов
Расположение каналов : Front: L C R, Side: L R, LFE
Частота : 48,0 КГц
Битовая глубина : 24 бит
Метод сжатия : С потерями
Размер потока : 1,07 Гбайт (10%)
Язык : English
Default : Да
Forced : Нет
Текст #1
Идентификатор : 4
Формат : UTF-8
Идентификатор кодека : S_TEXT/UTF8
Идентификатор кодека/Информация : UTF-8 Plain Text
Заголовок : Forced
Язык : Russian
Default : Нет
Forced : Нет
Текст #2
Идентификатор : 5
Формат : UTF-8
Идентификатор кодека : S_TEXT/UTF8
Идентификатор кодека/Информация : UTF-8 Plain Text
Язык : Russian
Default : Нет
Forced : Нет
Текст #3
Идентификатор : 6
Формат : UTF-8
Идентификатор кодека : S_TEXT/UTF8
Идентификатор кодека/Информация : UTF-8 Plain Text
Язык : English
Default : Нет
Forced : Нет
Текст #4
Идентификатор : 7
Формат : UTF-8
Идентификатор кодека : S_TEXT/UTF8
Идентификатор кодека/Информация : UTF-8 Plain Text
Заголовок : SDH
Язык : English
Default : Нет
Forced : Нет
Меню #1
00:00:00.000 : en:00:00:00.000
00:07:12.140 : en:00:07:12.140
00:16:34.910 : en:00:16:34.910
00:27:07.501 : en:00:27:07.501
00:37:25.952 : en:00:37:25.952
00:44:46.684 : en:00:44:46.684
00:48:45.130 : en:00:48:45.130
00:51:36.009 : en:00:51:36.009
00:58:56.032 : en:00:58:56.032
01:09:07.893 : en:01:09:07.893
01:13:39.623 : en:01:13:39.623
01:15:56.802 : en:01:15:56.802
01:18:52.978 : en:01:18:52.978
01:21:53.742 : en:01:21:53.742
01:27:25.365 : en:01:27:25.365
01:33:10.543 : en:01:33:10.543
Меню #2
00:00:00.000 : en:00:00:00.000
00:07:12.140 : en:00:07:12.140
00:16:34.910 : en:00:16:34.910
00:27:07.501 : en:00:27:07.501
00:37:25.952 : en:00:37:25.952
00:44:46.684 : en:00:44:46.684
00:48:45.130 : en:00:48:45.130
00:51:36.009 : en:00:51:36.009
00:58:56.032 : en:00:58:56.032
01:09:07.893 : en:01:09:07.893
01:13:39.623 : en:01:13:39.623
01:15:56.802 : en:01:15:56.802
01:18:52.978 : en:01:18:52.978
01:21:53.742 : en:01:21:53.742
01:27:25.365 : en:01:27:25.365
01:33:10.543 : en:01:33:10.543

Скриншоты

--
Яндекс.Метрика
Рейтинг@Mail.ru