Джейсон Борн / Jason Bourne (2016) WEBRip

 

Создавать темы 13-Сен-2016 21:00

- Джейсон Борн / Jason Bourne (2016) WEBRip - Производство: Великобритания, Китай, США
Жанр: Боевик, Триллер
Режиссер: Пол Гринграсс
Актеры: Алисия Викандер, Мэтт Дэймон, Джулия Стайлз, Томми Ли Джонс, Венсан Кассель, Риз Ахмед, Ато Эссонда, Нив Гачев, Билл Кэмп, Александр Купер
Описание:
Мир на грани катастрофы, а значит пришло время ему вернуться. Неаполь, Мюнхен, Нью-Йорк - его имя знают повсюду. Элитный суперагент, лучший из лучших, даже в Лас-Вегасе игра пойдет по его правилам. Он - Джейсон Борн.-Возраст: 16+ (зрителям, достигшим 16 лет)
Рейтинг MPAA: PG-13 (детям до 13 лет просмотр нежелателен)
Дата мировой премьеры: 3 июля 2016
Дата российской премьеры: 1 сентября 2016
Продолжительность: 02:02:44
Качество видео: WEBRip
Перевод: Дублированный (Чистый звук)
Язык субтитров: Корейские
Вид субтитров: Вшитые отключаемые
Реклама: Присутствуют голосовые и текстовые вставки рекламы.
Видео: Xvid, 720x304, ~29.970 fps, 1401 Кбит/с
Аудио: AC3, 2 ch, 192 kb/s, 48.0 KHz

Mediainfo:

L:\DCDownloads2\2016 - Джейсон Борн.D.WEBRip [боевик, триллер].avi
General
Complete name : L:\DCDownloads2\2016 - Джейсон Борн.D.WEBRip [боевик, триллер].avi
Format : AVI
Format/Info : Audio Video Interleave
File size : 1.38 GiB
Duration : 2h 2mn
Overall bit rate : 1 605 Kbps
Writing application : VirtualDubMod 1.5.10.2 (build 2540/release)
Writing library : VirtualDubMod build 2540/release
Video #0
ID : 0
Format : MPEG-4 Visual
Format profile : Advanced [email protected]
Format settings, BVOP : 2
Format settings, QPel : No
Format settings, GMC : No warppoints
Format settings, Matrix : Custom
Codec ID : XVID
Codec ID/Hint : XviD
Duration : 2h 2mn
Bit rate : 1 401 Kbps
Width : 720 pixels
Height : 304 pixels
Display aspect ratio : 2.35:1
Frame rate : 29.970 (30000/1001) fps
Color space : YUV
Chroma subsampling : 4:2:0
Bit depth : 8 bits
Scan type : Progressive
Compression mode : Lossy
Bits/(Pixel*Frame) : 0.214
Stream size : 1.20 GiB (87%)
Writing library : XviD 1.2.1 (UTC 2008-12-04)
Audio #1
ID : 1
Format : AC-3
Format/Info : Audio Coding 3
Mode extension : CM (complete main)
Format settings, Endianness : Big
Codec ID : 2000
Duration : 2h 2mn
Bit rate mode : Constant
Bit rate : 192 Kbps
Channel(s) : 2 channels
Channel positions : Front: L R
Sampling rate : 48.0 KHz
Frame rate : 31.250 fps (1536 spf)
Compression mode : Lossy
Stream size : 169 MiB (12%)
Alignment : Split accross interleaves
Interleave, duration : 33 ms (1.00 video frame)
Interleave, preload duration : 500 ms
Скриншоты:
Яндекс.Метрика
Рейтинг@Mail.ru