[ Сегодня на трекере фрилич! Идет свободное скачивание без начисления Download ]

Снежная королева (Максим Свешников, Владлен Барбэ) [2012 г., Mультфильм, Фэнтези, Приключения, Семейный, DVD9] 2D, 3D [Анаглиф / Anaglyph]

 

Создавать темы 05-Янв-2014 10:31

-Снежная королева -- Производство: Россия / Инлэй Фильм, Wizart Animation
Режиссер: Максим Свешников, Владлен Барбэ
Жанр: Mультфильм, Фэнтези, Приключения, Семейный
Год выпуска: 2012 г.
Продолжительность: 01:12:58
Мировая премьера: 1 января 2013
Российская премьера: 31 декабря 2012, «Bazelevs Distribution»
Перевод: Не требуется
Роли озвучивали: Иван Охлобыстин, Нюша Шурочкина (Герда), Анна Ардова, Рамиля Искандер, Дмитрий Нагиев, Лиза Арзамасова, Галина Тюнина, Юрий Стоянов, Людмила Артемьева, Михаил Тихонов-Описание: В стремлении сотворить Новый мир — холодный и практичный, где четкость линий призвана заменить эмоции, а северный ветер должен остудить людские души, Снежная Королева избавляется от всех представителей творческих профессий. Маленькой и смелой Герде, отправившейся в опасное путешествие, чтобы спасти своего брата Кая, предстоит столкнуться с этим холодным миром Снежной Королевы. Преодолевая все сложности и преграды на пути к своей цели, Герда не только обретает семью, но и веру в себя, находит поддержку новых друзей.- - -Качество видео: DVD9
Формат видео: DVD Video
Формат 3D: Анаглиф / Anaglyph
Видео кодек: MPEG 2
Аудио кодек: AC3
Видео: MPEG 2, 720x576 (16:9), 25.000 fps, 8 500 Kbps (0.633 bit/pixel)
Аудио: Rus: AC-3, 48.0 KHz, 6 ch, 448 Kbps, CBR
Cубтитры: отсутствуют

DVD Info

Title: Фильмы для пиратки
Size: 7.29 Gb ( 7 642 320 KBytes ) - DVD-9
Enabled regions: 1, 2, 3, 4, 5, 6, 7, 8
VTS_01 :
Play Length: 00:00:16
Video: PAL 16:9 (720x576) VBR, Auto Pan&Scan
Audio:
Russian (Dolby AC3, 2 ch)
VTS_02 :
Play Length: 01:12:58
Video: PAL 16:9 (720x576) VBR, Auto Pan&Scan
Audio:
Russian (Dolby AC3, 6 ch)
Menu Video:
NTSC 4:3 (720x480) VBR
Auto Pan&Scan, Auto Letterboxed
Menu Russian Language Unit :
Root Menu
Chapter (PTT) Menu

Media Info

Общее
Полное имя : D:\Snezhnaya.Koroleva.2012.O.DVD9\VIDEO_TS\VTS_02_2.VOB
Формат : MPEG-PS
Размер файла : 1024 Мбайт
Продолжительность : 20 м.
Режим общего битрейта : Переменный
Общий поток : 7150 Кбит/сек
Видео
Идентификатор : 224 (0xE0)
Формат : MPEG Video
Версия формата : Version 2
Профиль формата : [email protected]
Параметр BVOP формата : Да
Параметр матрицы формата : Выборочная
Параметр GOP формата : M=3, N=15
Продолжительность : 20 м.
Вид битрейта : Переменный
Битрейт : 6560 Кбит/сек
Максимальный битрейт : 8500 Кбит/сек
Ширина : 720 пикселей
Высота : 576 пикселей
Соотношение сторон : 16:9
Частота кадров : 25,000 кадров/сек
Стандарт вещания : PAL
Цветовое пространство : YUV
Субдискретизация насыщенности : 4:2:0
Битовая глубина : 8 бит
Тип развёртки : Прогрессивная
Метод сжатия : С потерями
Бит/(Пиксели*Кадры) : 0.633
Размер потока : 939 Мбайт (92%)
Аудио
Идентификатор : 189 (0xBD)-128 (0x80)
Формат : AC-3
Формат/Информация : Audio Coding 3
Расширение режима : CM (complete main)
Параметр Endianness формата : Big
Режим смешивания : DVD-Video
Продолжительность : 20 м.
Вид битрейта : Постоянный
Битрейт : 448 Кбит/сек
Каналы : 6 каналов
Расположение каналов : Front: L C R, Side: L R, LFE
Частота : 48,0 КГц
Битовая глубина : 16 бит
Метод сжатия : С потерями
Задержка видео : -416 мс.
Размер потока : 64,2 Мбайт (6%)
Меню

Скриншоты

Скриншоты в анаглифе

Скриншоты меню

Яндекс.Метрика
Рейтинг@Mail.ru