Новогодний отрыв / Incidencias (Хосе Корбачо / José Corbacho, ...) [2015 г., комедия, HDRip] Dub

 

Создавать темы 13-Сен-2016 03:58

-Новогодний отрыв / Incidencias-- Производство: Испания
Год выпуска: 2015 г.
Жанр: комедия
Продолжительность: 01:26:34Мировая премьера: 24 октября 2015
Российская премьера: 21 января 2016, «Русский Репортаж»
Перевод: Профессиональный (полное дублирование) [Позитив 2016]
Режиссер: Хосе Корбачо / José Corbacho, ...-В ролях: Росси де Пальма, Лола Дуэньяс, Карлос Аресес, Иманоль Ариас, Аида Фольч, Рубен Очандиано, Нурия Гаго, Роберто Аламо, Эрнесто Альтерио, Miki Esparbé-Описание: В канун нового года пассажирский поезд терпит аварию и застревает на пустынном участке. Время неумолимо движется к полуночи, а помощи все нет. Пассажиры теряют последнюю надежду встретить праздник в кругу своих близких. Уныние сменяется отчаянием и подозрительностью. Всем начинает казаться, что один из путешественников — опасный преступник, вынашивающий кошмарные планы…-
Качество видео: HDRip
Контейнер: AVI
Видео кодек: XviD
Аудио кодек: AC3
Видео: 720x304 (2.37:1), 24 fps, XviD build 50 ~1852 kbps avg, 0.35 bit/pixel
Аудио: 48 kHz, AC3 Dolby Digital, 3/2 (L,C,R,l,r) + LFE ch, ~384 kbps
Cубтитры: отсутствуют

Рецензия

У нас все работает безупречно, кроме первой помощи и обезболивающегоНе люблю я сравнивать фильмы между собой, но сегодня сделаю небольшое исключение. Не так давно пересматривала фильм Педро Альмодовара «Я очень возбужден» и могу сказать, что сюжеты весьма похожи. Группа людей не может приземлиться из-за возникших технических проблем, поэтому им несколько часов приходится кружить в воздухе. За это время они совершают весьма странные (для меня) вещи, а также частично раскрывают свои тайны. Здесь ситуация примерно такая же, только действие происходит в поезде, застрявшем посреди пустынных земель.Актерский составДвоих актеров мы можем встретить в вышеупомянутом фильме (Я очень возбужден): Лола Дуэньяс и Карлос Аресес. Еще двое также засветились в Альмодоварских шедеврах: Рубен Очандиано (Разомкнутые объятия), Роберто Аламо (Кожа, в которой я живу). В общем, фанаты испанских киношек будут рады такому составу.ПерсонажиПерсонажи в фильме очень разные и каждый со своим «приветом». Один страдает от нервных припадков, вторая не отрывается от стакана, третья относится к тем, кто в критических ситуациях «бегает и машет стволом», четвертый никак не может разобраться в своих отношениях. Хотя из общей массы можно отметить парочку нормальных — это Андре (или Араб, как его прозвали в поезде) и Мияко (Японка), они вели себя наиболее адекватно. Лично мне больше всего запомнилась Солана (та, что вечно со стаканом), что-то в ней есть, быть может это «душевные» фразы, а может и манера поведения в нестандартных ситуациях.Фильм вам понравится только в том случае, если вы любитель наблюдать за тем, как разные (точнее разношерстные) люди собираются в одном месте и начинают творить полное безумие. И то, мой вам совет, садитесь тогда за «Я очень возбужден», он все-таки поинтереснее будет. В противном случае вы скорее всего просто выключите где-то на середине.1 балл за идею (да, я люблю нечто подобное), по баллу за каждого «Альмодоварского» актера (4 балла) и 1 балл за Солану. Итого 6, а дальше решайте сами, смотреть или нет)6 из 10

Media Info

Общее
Полное имя : F:\Новогодний отрыв\Novogodnij otryv.2015.HDRip.[pirat.ca].avi
Формат : AVI
Формат/Информация : Audio Video Interleave
Размер файла : 1,36 Гбайт
Продолжительность : 1 ч. 26 м.
Общий поток : 2246 Кбит/сек
Название фильма : Novogodnij otryv.2015.HDRip.[pirat.ca]
Программа кодирования : VirtualDubMod 1.5.10.2 (build 2540/release)Видео
Идентификатор : 0
Формат : MPEG-4 Visual
Профиль формата : Advanced [email protected]/* */
Параметр BVOP формата : 2
Параметр QPel формата : Нет
Параметр GMC формата : Без точки перехода
Параметр матрицы формата : Default (MPEG)
Идентификатор кодека : XVID
Идентификатор кодека/Подсказка : XviD
Продолжительность : 1 ч. 26 м.
Битрейт : 1852 Кбит/сек
Ширина : 720 пикселей
Высота : 304 пикселя
Соотношение сторон : 2,35:1
Частота кадров : 24,000 кадра/сек
Цветовое пространство : YUV
Субдискретизация насыщенности : 4:2:0
Битовая глубина : 8 бит
Тип развёртки : Прогрессивная
Метод сжатия : С потерями
Бит/(Пиксели*Кадры) : 0.353
Размер потока : 1,12 Гбайт (82%)
Библиотека кодирования : XviD 1.2.1 (UTC 2008-12-04)Аудио
Идентификатор : 1
Формат : AC-3
Формат/Информация : Audio Coding 3
Расширение режима : CM (complete main)
Параметр Endianness формата : Big
Идентификатор кодека : 2000
Продолжительность : 1 ч. 26 м.
Вид битрейта : Постоянный
Битрейт : 384 Кбит/сек
Каналы : 6 каналов
Расположение каналов : Front: L C R, Side: L R, LFE
Частота : 48,0 КГц
Частота кадров : 31,250 кадров/сек (1536 spf)
Метод сжатия : С потерями
Задержка видео : 29 мс.
Размер потока : 238 Мбайт (17%)
Выравнивание : Разделение по промежуткам
Продолжительность промежутка : 42 мс. (1,00 видеокадр)
Время предзагрузки промежутка : 500 мс.

Скриншот c названием фильма

Скриншоты

Трейлер

Яндекс.Метрика
Рейтинг@Mail.ru