Курорт / The Rezort (Стив Баркер / Steve Barker) [2015 г., ужасы, HDRip] MVO [СПД]

 

Создавать темы 13-Сен-2016 03:57

-Курорт / The Rezort-- Производство: Великобритания, Испания, Бельгия, Black Camel Pictures, Gloucester Place Films, uMedia Family…
Год выпуска: 2015 г.
Жанр: ужасы
Продолжительность: 01:30:40Мировая премьера: 22 июня 2015
Перевод: Любительский (многоголосый, закадровый) [СПД]
Режиссер: Стив Баркер / Steve Barker-В ролях: Дугрей Скотт, Джессика Де Гау, Мартин МакКанн, Ричард Лэйн, Джасса Ахлувалиа, Сэм Дуглас, Клэр Гуз, Шэйн Заза, Элен Риз-Описание: В постапокалиптическом мире есть такое развлечение и способ выпустить пар — поохотиться в сафари-парке на зомби. Группа туристов прибывает в такой парк под названием «Курорт». У каждого из них свои причины стрелять по зомби, но единственное, что сдерживает толпы ходячих мертвецов — централизованная система защиты. И кто-то из прибывших проверит её на прочность.-
Качество видео: HDRip
Контейнер: AVI
Видео кодек: XviD
Аудио кодек: AC3
Видео: 720x304 (2.37:1), 24 fps, XviD MPEG-4 ~1432 kbps avg, 0.27 bit/pixel
Аудио: 48 kHz, AC3 Dolby Digital, 3/2 (L,C,R,l,r) + LFE ch, ~384 kbps
Cубтитры: отсутствуют

Рецензия

Скептически отношусь к фильмам про зомби, хотя люблю этот жанр. Интернет просто изобилует низкосортными лентами данной тематики, начиная от зомби-студентов кончая теме же зомби но уже животными. Стив Баркер уже снимал в этом направлении, Адский бункер в целом оказался не плохим. Что же по поводу этой картины.Баркер пытается увести немного сюжет от обыденной банальности, и вводит в целом не новшество, но ещё настолько не обыгранное действие как охоту на ходячих мертвецов. Не сказать, что это спасает картину. Её беспощадно топит и тянет ко дну плохая игра актёров, от массовки и до главных героев. Хоть и попытались удивить идеей с сафари на зомби, но бестолковый и предсказуемый сюжет сводит все старания к нулю. Присутствуют задатки на вторую часть. Но если всё будет идти в этом тоне, то особого шедевра мы не увидим.Что в итог. Из общей массы ему подобных его не выделить. Один из безликих, проходных фильмов, для каналов НСТ или ТВ3.

Media Info

Общее
Полное имя : F:\Резорт\The Rezort.2015.BDRip.[pirat.ca].avi
Формат : AVI
Формат/Информация : Audio Video Interleave
Размер файла : 1,16 Гбайт
Продолжительность : 1 ч. 30 м.
Общий поток : 1824 Кбит/сек
Программа кодирования : VirtualDubMod 1.5.10.3 (build 2550/release)
Библиотека кодирования : VirtualDubMod build 2550/releaseВидео
Идентификатор : 0
Формат : MPEG-4 Visual
Профиль формата : Advanced [email protected]/* */
Параметр BVOP формата : 2
Параметр QPel формата : Нет
Параметр GMC формата : Без точки перехода
Параметр матрицы формата : Default (H.263)
Режим смешивания : Сжатый битовый поток
Идентификатор кодека : XVID
Идентификатор кодека/Подсказка : XviD
Продолжительность : 1 ч. 30 м.
Битрейт : 1433 Кбит/сек
Ширина : 720 пикселей
Высота : 304 пикселя
Соотношение сторон : 2,40:1
Частота кадров : 24,000 кадра/сек
Цветовое пространство : YUV
Субдискретизация насыщенности : 4:2:0
Битовая глубина : 8 бит
Тип развёртки : Прогрессивная
Метод сжатия : С потерями
Бит/(Пиксели*Кадры) : 0.273
Размер потока : 929 Мбайт (79%)
Библиотека кодирования : XviD 67Аудио
Идентификатор : 1
Формат : AC-3
Формат/Информация : Audio Coding 3
Расширение режима : CM (complete main)
Параметр Endianness формата : Big
Идентификатор кодека : 2000
Продолжительность : 1 ч. 30 м.
Вид битрейта : Постоянный
Битрейт : 384 Кбит/сек
Каналы : 6 каналов
Расположение каналов : Front: L C R, Side: L R, LFE
Частота : 48,0 КГц
Частота кадров : 31,250 кадров/сек (1536 spf)
Битовая глубина : 16 бит
Метод сжатия : С потерями
Размер потока : 249 Мбайт (21%)
Выравнивание : Разделение по промежуткам
Продолжительность промежутка : 80 мс. (1,92 видеокадра)
Время предзагрузки промежутка : 560 мс.

Скриншот c названием фильма

Скриншоты

Трейлер

Яндекс.Метрика
Рейтинг@Mail.ru