Шесть лебедей / Die sechs Schwäne (Карола Хаттоп / Karola Hattop) [2012 г., семейный, сказка, 6+, TVRip] MVO [Игмар]

 

Создавать темы 13-Сен-2016 03:55

-Шесть лебедей / Die sechs Schwäne-- Производство: Германия, Kinderfilm, Zweites Deutsches Fernsehen (ZDF)
Год выпуска: 2012 г.
Жанр: семейный, сказка, 6+
Продолжительность: 01:29:05Мировая премьера: 26 декабря 2012
Перевод: Профессиональный (многоголосый, закадровый) [Игмар]
Режиссер: Карола Хаттоп / Karola Hattop-В ролях: Синья Дикс, Юлия Ягер, Андре Качмарчик, Манфред-Антон Альгранг, Хеннинг Пекер, Юлия Шефле, Арвед Фризе, Бярне Майсел, Пауль Альхеузер, Йонас Хеммерле-Описание: Как-то раз в далёкой-далёкой стране отец в сердцах проклял шестерых своих детей, и те обернулись лебедями. Спустя 18 лет их младшей сестре Констанце предстоит спасти братьев и сестёр, но для этого ей придётся пройти сложный путь.
По мотивам сказки братьев Гримм.-
Качество видео: TVRip
Контейнер: MKV
Видео кодек: MPEG4 AVC
Аудио кодек: AC3
Видео: MPEG-4 AVC, 852x480 (16:9), 25.000 fps, 1399 kbps, 0.137 bit/pixel
Аудио: AC3 2.0, 48 kHz, 192 kbps
Cубтитры: отсутствуют

Media Info

Общее
Уникальный идентификатор : 252639250508496503056878298280105404817 (0xBE108CBD9B9BF225BE4B6C73BAC4E991)
Полное имя : J:\Шесть лебедей\SHestj lebedej.2012.TVRip.[pirat.ca].mkv
Формат : Matroska
Версия формата : Version 2
Размер файла : 1015 Мбайт
Продолжительность : 1 ч. 29 м.
Режим общего битрейта : Постоянный
Общий поток : 1592 Кбит/сек
Дата кодирования : UTC 2016-09-11 21:47:32
Программа кодирования : mkvmerge v5.3.0 ('I could have danced') built on Feb 9 2012 10:38:07
Библиотека кодирования : libebml v1.2.3 + libmatroska v1.3.0Видео
Идентификатор : 1
Формат : AVC
Формат/Информация : Advanced Video Codec
Профиль формата : [email protected]/* */
Параметр CABAC формата : Да
Параметр ReFrames формата : 4 кадра
Параметр GOP формата : M=1, N=50
Идентификатор кодека : V_MPEG4/ISO/AVC
Продолжительность : 1 ч. 29 м.
Вид битрейта : Постоянный
Битрейт : 1399 Кбит/сек
Ширина : 852 пикселя
Высота : 480 пикселей
Соотношение сторон : 16:9
Режим частоты кадров : Постоянный
Частота кадров : 25,000 кадров/сек
Цветовое пространство : YUV
Субдискретизация насыщенности : 4:2:0
Битовая глубина : 8 бит
Тип развёртки : Прогрессивная
Бит/(Пиксели*Кадры) : 0.137
Размер потока : 872 Мбайт (86%)
Язык : German
Default : Да
Forced : НетАудио
Идентификатор : 2
Формат : AC-3
Формат/Информация : Audio Coding 3
Расширение режима : CM (complete main)
Параметр Endianness формата : Big
Идентификатор кодека : A_AC3
Продолжительность : 1 ч. 29 м.
Вид битрейта : Постоянный
Битрейт : 192 Кбит/сек
Каналы : 2 канала
Расположение каналов : Front: L R
Частота : 48,0 КГц
Частота кадров : 31,250 кадров/сек (1536 spf)
Метод сжатия : С потерями
Размер потока : 122 Мбайт (12%)
Язык : Russian
Default : Да
Forced : Нет

Скриншот c названием фильма

Скриншоты

Трейлер

Яндекс.Метрика
Рейтинг@Mail.ru