Вторжение / The Invasion (Оливер Хиршбигель / Oliver Hirschbiegel, ...) [2007 г., фантастика, триллер, BDRip-AVC, 720p] Dub [МОСФИЛЬМ-мастер 2007] + MVO [Укр.]

 

Создавать темы 13-Сен-2016 03:51

-Вторжение / The Invasion-- Производство: США, Австралия
Год выпуска: 2007 г.
Жанр: фантастика, триллер
Продолжительность: 01:39:22Мировая премьера: 17 августа 2007
Российская премьера: 8 ноября 2007, «Каро-Премьер»
Дата выхода DVD: 1 декабря 2011, «CP-Digital»
Перевод: Профессиональный (полное дублирование) [МОСФИЛЬМ-мастер 2007]
Перевод 2: Профессиональный (многоголосый, закадровый) [Укр.]
Режиссер: Оливер Хиршбигель / Oliver Hirschbiegel, ...-В ролях: Николь Кидман, Дэниэл Крэйг, Джереми Нортэм, Джексон Бонд, Джеффри Райт, Вероника Картрайт, Джозеф Соммер, Селия Уэстон, Роджер Риис, Эрик Бенжамин, Сьюзэн Флойд, Стефани Берри, Алексис Рабен, Адам ЛеФевр, Джоэнна Мерлин, Филд Бловелт-Описание: История о таинственной эпидемии, которую насылают на жителей маленького городка внедрившиеся на планету инопланетяне. Героине Николь Кидман, психиатру из Вашингтона, удается найти причину непонятных изменений в поведении людей этого города.-
Качество видео: BDRip-AVC
Контейнер: MKV
Стандарт разрешения: 720p
Видео кодек: MPEG4 AVC
Аудио кодек: AC3
Видео: 1280x720 (16:9), 23.976 fps, AVC, ~5526 Kbps, 0.250 bits/pixel
Аудио: 48.0 KHz, AC3, 6 ch, 384 Kbps
Аудио #2: 48.0 KHz, AC3, 6 ch, 448 Kbps
Cубтитры: отсутствуют

Доп. информация

Фильм снят по мотивам романа Джека Финни «Похитители тел» (The Body Snatchers, 1955).
В марте 2007 года газета Los Angeles Times опубликовала информацию о проблемах, с которыми столкнулся фильм. По словам одного из ответственных лиц компании-производителя фильма Warner Brothers Алана Хорна, фильму были необходимы пересъёмки в связи с недостаточностью действия. Первоначальный режиссёр картины, немец Оливер Хиршбигель, на момент принятия этого решения оказался недоступен для участия в дополнительных съёмках, поэтому продюсеры наняли Лану и Энди Вачовски для написания дополнительных сцен, а затем позвали режиссёра фильма ««V» значит Вендетта» Джеймса МакТига для пересъёмок фильма, выделив ему 10-миллионный бюджет.
Фильм планировался как ремейк классического фильма ужасов «Вторжение похитителей тел» (1978) (который, в свою очередь, также является ремейком одноимённого фильма 1956 года, а также экранизацией одноимённого романа Джека Финни). Однако на стадии пре-производства авторы фильма решили написать оригинальный сценарий.
Первоначально премьера фильма в США планировалась в сентябре 2006 года. Однако по неизвестным причинам прокат был перенесён студией сперва на 26 января 2007 года, а затем на 2 ноября того же года. Первоначальное название картины The Visiting изменено на The Invasion. Окончательная дата премьеры в США — 17 августа 2007 года.
Дэниел Крэйг получил известие об утверждении его на роль Джеймса Бонда прямо во время съёмок «Вторжения». Актёру пришлось взять короткий перерыв для того, чтобы вернуться в Лондон для пресс-конференции.
Фильму потребовались дополнительные пересъёмки, так как по мнению продюсеров фильм оказался недостаточно «триллером».
25 января 2007 года появилось экстренное сообщение о автокатастрофе, в которую попала Николь Кидман во время повторных пересъёмок фильма. Актриса находилась за рулём автомобиля, в момент, когда снималась сцена преследования её героини группой зомби. Автомобиль натолкнулся на другое автотранспортное средство, в результате чего пострадало восемь человек (один из каскадёров сломал руку). Сама Николь Кидман в шоковом состоянии была отправлена в госпиталь, однако через два часа была выпущена и настояла на продолжении съёмок в течение ночи. Это уже вторая авария на съёмочной площадке с участием Кидман: ранее в 2005 году, в период исходных съёмок она так же оказалась в транспортном средстве, которое сорвалось с тормоза и врезалось в декорации. Тогда актриса не пострадала.
Фильм был завершен еще в начале 2006 года, но в 2007 по сути переснят заново — сценарий переписали Лана и Энди Вачовски, а в качестве режиссера выступил Джеймс МакТиг.
Актриса Вероника Картрайт (известная по роли Лэмберт из фильма «Чужой» (1979)) играла во «Вторжении похитителей тел» (1978) одну из главных ролей. Она единственная из всех героев сохранила свою человеческую природу к финалу той ленты.
На 27-ой минуте фильма русский посол по имени Юрий Каганович сообщает, что слово «Чехословакия» в русском языке означает «половая тряпка» (в оригинале — doormat).

Рецензия

Вот так кино!Случайно попался на глаза этот фильм. Ну что сказать — отличное кино!Психиатр в лице Николь Кидман начинает замечать, что люди на улице становятся странными — молчат, смотрят в одну точку и делают все автоматически. Конечно, как умный человек, сначала ей не приходят в голову всякие ужасы вроде вирусов и вторжений инопланетной расы. Но когда уже у ее знакомых меняется поведение, героиня Кидман ищет информацию в интернете, привлекает к расследованию ученых.В плане актерской игры — сыграли замечательно, особенно похвала Кидман и актеру, сыгравшему ее сына! Чувствуется и сомнение, и страх, и паника… Насчет атмосферы — порой мурашки бегут от происходящих событий. Например, в самом начале, когда все люди в проезжающих автомобилях в упор смотрят на героиню. Зачем смотрят, что не так? От этого дико становится! Также порадовало присутствие в фильме знакомых лиц вроде Крэйга.Некоторые говорят, что это лишь пустой ремейк и ничего в нем нет. Так вот: видели предыдущие фильмы про пришельцев и и можем точно заявить: этот фильм — один из лучших в своем жанре!10 из 10

Media Info

Общее
Уникальный идентификатор : 205026145425390884238220448404806998564 (0x9A3E996AC9B8F6E694029295094A9A24)
Полное имя : F:\Вторжение\VtorJZenie.2007.BDRip-AVC.720p.[pirat.ca].mkv
Формат : Matroska
Версия формата : Version 2
Размер файла : 4,42 Гбайт
Продолжительность : 1 ч. 39 м.
Общий поток : 6361 Кбит/сек
Дата кодирования : UTC 2016-09-11 23:11:58
Программа кодирования : mkvmerge v5.3.0 ('I could have danced') built on Feb 9 2012 10:38:07
Библиотека кодирования : libebml v1.2.3 + libmatroska v1.3.0Видео
Идентификатор : 1
Формат : AVC
Формат/Информация : Advanced Video Codec
Профиль формата : [email protected]/* */
Параметр CABAC формата : Да
Параметр ReFrames формата : 9 кадров
Идентификатор кодека : V_MPEG4/ISO/AVC
Продолжительность : 1 ч. 39 м.
Битрейт : 5526 Кбит/сек
Ширина : 1280 пикселей
Высота : 720 пикселей
Соотношение сторон : 16:9
Режим частоты кадров : Постоянный
Частота кадров : 23,976 кадра/сек
Цветовое пространство : YUV
Субдискретизация насыщенности : 4:2:0
Битовая глубина : 8 бит
Тип развёртки : Прогрессивная
Бит/(Пиксели*Кадры) : 0.250
Размер потока : 3,75 Гбайт (85%)
Библиотека кодирования : x264 core 57 svn-719M
Настройки программы : cabac=1 / ref=6 / deblock=1:-3:-3 / analyse=0x3:0x133 / me=umh / fpel_cmp=sad / subme=7 / me-prepass=0 / brdo=1 / mixed_ref=1 / me_range=20 / chroma_me=1 / trellis=2 / 8x8dct=1 / cqm=2 / deadzone=21,11 / chroma_qp_offset=0 / threads=6 / nr=0 / decimate=1 / mbaff=0 / bframes=16 / b_pyramid=1 / b_adapt=1 / b_bias=0 / direct=3 / wpredb=1 / bime=1 / keyint=250 / keyint_min=25 / scenecut=40(pre) / rc=2pass / bitrate=5526 / ratetol=1.0 / rceq='blurCplx^(1-qComp)' / qcomp=0.60 / qpmin=10 / qpmax=51 / qpstep=4 / cplxblur=20.0 / qblur=0.5 / ip_ratio=1.40 / pb_ratio=1.30 / aq=1:0.3:15.0
Язык : English
Default : Да
Forced : Нет
Statistics Tags Issue : mkvmerge v7.0.0 ('Where We Going') 32bit built on Jun 9 2014 15:08:34 2015-05-25 12:56:12 / mkvmerge v5.3.0 ('I could have danced') built on Feb 9 2012 10:38:07 2016-09-11 23:11:58
FromStats_BitRate : 5526835
FromStats_Duration : 01:39:22.341000000
FromStats_FrameCount : 142953
FromStats_StreamSize : 4119109495Аудио #1
Идентификатор : 2
Формат : AC-3
Формат/Информация : Audio Coding 3
Расширение режима : CM (complete main)
Параметр Endianness формата : Big
Идентификатор кодека : A_AC3
Продолжительность : 1 ч. 39 м.
Вид битрейта : Постоянный
Битрейт : 384 Кбит/сек
Каналы : 6 каналов
Расположение каналов : Front: L C R, Side: L R, LFE
Частота : 48,0 КГц
Частота кадров : 31,250 кадров/сек (1536 spf)
Метод сжатия : С потерями
Размер потока : 273 Мбайт (6%)
Заголовок : Дубляж AC3 5.1 384 кб/с
Язык : Russian
Default : Нет
Forced : Да
Statistics Tags Issue : mkvmerge v7.0.0 ('Where We Going') 32bit built on Jun 9 2014 15:08:34 2015-05-25 12:56:12 / mkvmerge v5.3.0 ('I could have danced') built on Feb 9 2012 10:38:07 2016-09-11 23:11:58
FromStats_BitRate : 384000
FromStats_Duration : 01:39:22.080000000
FromStats_FrameCount : 186315
FromStats_StreamSize : 286179840Аудио #2
Идентификатор : 3
Формат : AC-3
Формат/Информация : Audio Coding 3
Расширение режима : CM (complete main)
Параметр Endianness формата : Big
Идентификатор кодека : A_AC3
Продолжительность : 1 ч. 39 м.
Вид битрейта : Постоянный
Битрейт : 448 Кбит/сек
Каналы : 6 каналов
Расположение каналов : Front: L C R, Side: L R, LFE
Частота : 48,0 КГц
Частота кадров : 31,250 кадров/сек (1536 spf)
Метод сжатия : С потерями
Задержка видео : 1 с. 100 мс.
Размер потока : 318 Мбайт (7%)
Заголовок : Багатоголосий закадровий - AC3 5.1 448 кб/с
Язык : Ukrainian
Default : Нет
Forced : Нет
Statistics Tags Issue : mkvmerge v7.0.0 ('Where We Going') 32bit built on Jun 9 2014 15:08:34 2015-05-25 12:56:12 / mkvmerge v5.3.0 ('I could have danced') built on Feb 9 2012 10:38:07 2016-09-11 23:11:58
FromStats_BitRate : 448000
FromStats_Duration : 01:39:20.704000000
FromStats_FrameCount : 186272
FromStats_StreamSize : 333799424

Скриншот c названием фильма

Скриншоты

Трейлер

Яндекс.Метрика
Рейтинг@Mail.ru