[ Сегодня на трекере фрилич! Идет свободное скачивание без начисления Download ]

Абдулла / Abdullah (Санджай Кхан / Sanjay Khan) [1980 г., боевик, драма, семейный, WEB-DLRip] Dub [киностудии им. М. Горького]

 

Создавать темы 13-Сен-2016 03:45

-Абдулла / Abdullah-- Производство: Индия
Год выпуска: 1980 г.
Жанр: боевик, драма, семейный
Продолжительность: 02:21:56Российская премьера: Май 1983 СССР
Перевод: Профессиональный (полное дублирование) [киностудии им. М. Горького]
Режиссер: Санджай Кхан / Sanjay Khan-В ролях: Радж Капур, Зинат Аман, Санджай Кхан, Санджив Кумар, Денни Дензонгпа, Мехмуд, Раджив Бхатия, Боб Кристо, Насир Хуссейн, Кадер Кхан, Дхирадж Кумар, Суджит Кумар, Лила Мишра, Фарида Джалал, Хелен, Мадан Пури, Ом Пракаш, Правин Паул, Ракеш Панди, Гуфи Пайнтал, Мукри, Джезибель, Парвин Баби-Описание: Фильм-легенда о противоборстве старого Абдуллы-отшельника и благородного вождя мусульманского племени, храброго шейха Мохаммеда аль Камаля с жестоким Кхалилом, главарем банды, бесчинствующей среди мирного населения.-
Качество видео: WEB-DLRip
Контейнер: MKV
Видео кодек: XviD
Аудио кодек: AC3
Видео: 720x408 (1.76:1), 25 fps, XviD build 50 ~1972 kbps avg, 0.27 bit/pixel
Аудио: 48 kHz, AC3 Dolby Digital, 2/0 (L,R) ch, ~192 kbps
Cубтитры: отсутствуют

Рецензия

Считаю этот фильм классикой жанра индийского кино по сочетанию добротности постановки и собранию фантастических нелепостей. Здесь вы найдёте ВСЁ! Преданного верблюда, зубами вытаскивающего гвозди из руки любимого хозяина. Звероподобного негодяя, прошибающего головой каменную стену. Месяц и звёзды из фольги на фоне бархатного ночного неба в трогательной любовной сцене. Суперметкого героя, в воздухе пробивающего монету пулей. И этого же героя, легко вспрыгивающего при необходимости на второй этаж без всяких посторонних приспособлений. Ну надо было — вот и прыгнул! И ещё много много всего! Рекомендую!И при всём том это красивое зрелище. Добротная (по инд. меркам) постановка. Короче — классика.

Media Info

oбщее
Полное имя : C:\герои 7\Абдулла\Abdulla.1980.WEBRip.[pirat.ca].avi
Формат : AVI
Формат/Информация : Audio Video Interleave
Профиль формата : OpenDML
Размер файла : 2,15 Гбайт
Продолжительность : 2 ч. 21 м.
Общий поток : 2171 Кбит/сек
Программа кодирования : VirtualDubMod 1.5.10.2 (build 2540/release)
Библиотека кодирования : VirtualDubMod build 2540/releaseВидео
Идентификатор : 0
Формат : MPEG-4 Visual
Профиль формата : Advanced [email protected]/* */
Параметр BVOP формата : 1
Параметр QPel формата : Нет
Параметр GMC формата : Без точки перехода
Параметр матрицы формата : Default (MPEG)
Идентификатор кодека : DX50
Идентификатор кодека/Подсказка : DivX 5
Продолжительность : 2 ч. 21 м.
Битрейт : 1967 Кбит/сек
Ширина : 720 пикселей
Высота : 408 пикселей
Соотношение сторон : 16:9
Частота кадров : 25,000 кадров/сек
Цветовое пространство : YUV
Субдискретизация насыщенности : 4:2:0
Битовая глубина : 8 бит
Тип развёртки : Прогрессивная
Метод сжатия : С потерями
Бит/(Пиксели*Кадры) : 0.268
Размер потока : 1,95 Гбайт (91%)
Библиотека кодирования : XviD 1.2.1 (UTC 2008-12-04)Аудио
Идентификатор : 1
Формат : AC-3
Формат/Информация : Audio Coding 3
Расширение режима : CM (complete main)
Параметр Endianness формата : Big
Идентификатор кодека : 2000
Продолжительность : 2 ч. 21 м.
Вид битрейта : Постоянный
Битрейт : 192 Кбит/сек
Каналы : 2 канала
Расположение каналов : Front: L R
Частота : 48,0 КГц
Частота кадров : 31,250 кадров/сек (1536 spf)
Метод сжатия : С потерями
Размер потока : 195 Мбайт (9%)
Выравнивание : Разделение по промежуткам
Продолжительность промежутка : 40 мс. (1,00 видеокадр)
Время предзагрузки промежутка : 500 мс.

Скриншот c названием фильма

Скриншоты

Трейлер

Яндекс.Метрика
Рейтинг@Mail.ru