Роковая красотка (Призовая лошадка) / Hors de prix (Пьер Сальвадори \ Pierre Salvadori) [2006 г., Комедия, мелодрама, BDRip-AVC] Dub [МОСФИЛЬМ-мастер 2007]

 

Создавать темы 13-Сен-2016 03:37

-Роковая красотка (Призовая лошадка) / Hors de prix-- Производство: Франция, Canal+ [fr], France 2 Cinema, Tovo Films
Год выпуска: 2006 г.
Жанр: Комедия, мелодрама
Продолжительность: 01:45:54Мировая премьера: 18 ноября 2006
Российская премьера: 2 августа 2007, «Централ Партнершип»
Дата выхода DVD: 30 августа 2007, «Союз-Видео»
Перевод: Профессиональный (полное дублирование) [МОСФИЛЬМ-мастер 2007]
Режиссер: Пьер Сальвадори \ Pierre Salvadori-В ролях: Одри Тоту, Гад Элмале, Мари-Кристин Адам, Вернон Добчефф, Жак Списсер, Аннелиз Хесме, Шарлотта Вермейл, Клодин Башет, Лорен Кларет, Жан Де Конинк-Описание: Авантюристка Ирен принимает скромного служащего отеля Жана за миллиардера. Обнаружив свою ошибку, она тут же покидает его, однако влюбленный Жан бросается следом.Его сбережения быстро заканчиваются, и от отчаяния Жан принимает предложение стать сопровождающим немолодой, но чрезвычайно обеспеченной дамы. Новый статус сближает его с Ирен, которая, в конце концов, смиряется с присутствием Жана. Она помогает Жану советом, и, сама того не осознавая, начинает все больше и больше привязываться к нему.-
Качество видео: BDRip-AVC
Контейнер: MKV
Видео кодек: MPEG4 AVC
Аудио кодек: AC3
Видео: MPEG-4 AVC, 2045 Кбит/с, 1024х432, 23,976 fps
Аудио: AC3, 6 ch, 448 Кбит/с, 48,0 kHz
Cубтитры: русские, английские

Доп. информация

Сцены фильма были сняты во французском Биаррице и в роскошной гостинице Отель-дю-Пале на этом курорте.

Рецензия

Любовь нагрянула внезапноОбожаю французские фильмы. Особенно с Одри Тоту, считаю её очень талантливой и харизматичной актрисой, в ней, определённо, есть свой неповторимый шарм в каждом фильме.Фильм `Роковая красотка` меня поразил! Как говорится, `и смех и грех` — сюжет настолько забавен, но в то же время, порой, так грустно, т. к в жизни всё так и происходит — людям часто приходится продавать свою любовь, ради денег, не замечая, настоящих, искренних чувств..Особенно меня поразил Жан (Гад Элмале) — который готов потратить последние деньги, ради ужина для любимой, чтобы доказать ей — как он любит её на самом деле. И он выбрал действительно правильную тактику — т. к Ирен (Одри Тоту) никогда не чувствовала, что её любят по-настоящему.. только когда она это поняла — она начала влюбляться и сама. Прекрасно!Я рада, что главные герои смогли понять — что им на самом деле нужно.10 из 10

Media Info

Общее
Уникальный идентификатор : 247204205939035514610515215820717405135 (0xB9F9CC5ABE8032EABA42964E3D0DB3CF)
Полное имя : F:\Hors de prix\Rokovaja krasotka.2006.BDRip-AVC.[pirat.ca].mkv
Формат : Matroska
Версия формата : Version 2
Размер файла : 1,85 Гбайт
Продолжительность : 1 ч. 45 м.
Общий поток : 2494 Кбит/сек
Дата кодирования : UTC 2016-09-12 11:44:29
Программа кодирования : mkvmerge v5.3.0 ('I could have danced') built on Feb 9 2012 10:38:07
Библиотека кодирования : libebml v1.2.3 + libmatroska v1.3.0Видео
Идентификатор : 1
Формат : AVC
Формат/Информация : Advanced Video Codec
Профиль формата : [email protected]/* */
Параметр CABAC формата : Да
Параметр ReFrames формата : 8 кадров
Идентификатор кодека : V_MPEG4/ISO/AVC
Продолжительность : 1 ч. 45 м.
Битрейт : 2045 Кбит/сек
Ширина : 1024 пикселя
Высота : 432 пикселя
Соотношение сторон : 2,40:1
Режим частоты кадров : Постоянный
Частота кадров : 23,976 кадра/сек
Цветовое пространство : YUV
Субдискретизация насыщенности : 4:2:0
Битовая глубина : 8 бит
Тип развёртки : Прогрессивная
Бит/(Пиксели*Кадры) : 0.193
Размер потока : 1,48 Гбайт (80%)
Библиотека кодирования : x264 core 115 r1937 aa21558
Настройки программы : cabac=1 / ref=8 / deblock=1:-2:-2 / analyse=0x3:0x113 / me=umh / subme=8 / psy=1 / psy_rd=1.00:0.10 / mixed_ref=0 / me_range=32 / chroma_me=1 / trellis=2 / 8x8dct=1 / cqm=0 / deadzone=21,11 / fast_pskip=1 / chroma_qp_offset=-3 / threads=6 / sliced_threads=0 / nr=0 / decimate=1 / interlaced=0 / bluray_compat=0 / constrained_intra=0 / bframes=8 / b_pyramid=2 / b_adapt=2 / b_bias=0 / direct=3 / weightb=1 / open_gop=0 / weightp=0 / keyint=240 / keyint_min=23 / scenecut=40 / intra_refresh=0 / rc_lookahead=30 / rc=2pass / mbtree=1 / bitrate=2045 / ratetol=1.0 / qcomp=0.60 / qpmin=15 / qpmax=47 / qpstep=3 / cplxblur=20.0 / qblur=0.5 / ip_ratio=1.40 / aq=1:1.10
Язык : English
Default : Да
Forced : НетАудио
Идентификатор : 2
Формат : AC-3
Формат/Информация : Audio Coding 3
Расширение режима : CM (complete main)
Параметр Endianness формата : Big
Идентификатор кодека : A_AC3
Продолжительность : 1 ч. 45 м.
Вид битрейта : Постоянный
Битрейт : 448 Кбит/сек
Каналы : 6 каналов
Расположение каналов : Front: L C R, Side: L R, LFE
Частота : 48,0 КГц
Частота кадров : 31,250 кадров/сек (1536 spf)
Метод сжатия : С потерями
Размер потока : 339 Мбайт (18%)
Заголовок : Дублированный
Язык : Russian
Default : Да
Forced : НетТекст #1
Идентификатор : 3
Формат : UTF-8
Идентификатор кодека : S_TEXT/UTF8
Идентификатор кодека/Информация : UTF-8 Plain Text
Заголовок : Русские
Язык : Russian
Default : Да
Forced : НетТекст #2
Идентификатор : 4
Формат : UTF-8
Идентификатор кодека : S_TEXT/UTF8
Идентификатор кодека/Информация : UTF-8 Plain Text
Заголовок : Английские
Язык : English
Default : Нет
Forced : Нет

Скриншот c названием фильма

Скриншоты

Трейлер

Яндекс.Метрика
Рейтинг@Mail.ru