[ Сегодня на трекере фрилич! Идет свободное скачивание без начисления Download ]

Люди в черном 2 / Men in Black II (Барри Зонненфельд / Barry Sonnenfeld) [2002 г., Фантастика, Боевик, Комедия, BDRip-AVC, 1080p] Dub [Невафильм 2002] + Sub (Rus)

 

Создавать темы 13-Сен-2016 03:33

-Люди в черном 2 / Men in Black II-- Производство: США
Год выпуска: 2002 г.
Жанр: Фантастика, Боевик, Комедия
Продолжительность: 01:28:08Мировая премьера: 3 июля 2002
Российская премьера: 4 июля 2002, «Каскад»
Дата выхода DVD: 21 ноября 2002, «Columbia/Sony»
Дата выхода Blu-Ray: 15 мая 2012, «Columbia/Sony»Перевод: Профессиональный (полное дублирование) [Невафильм 2002]
Режиссер: Барри Зонненфельд / Barry Sonnenfeld-В ролях: Томми Ли Джонс, Уилл Смит, Лара Флинн Бойл, Джонни Ноксвил, Розарио Доусон, Тони Шэлуб, Рип Торн, Патрик Варбертон, Джек Келер, Дэвид Кросс-Описание: Много лет назад лучший агент организации «Люди в черном» Кей получил задание особой важности. Ему поручили надёжно спрятать таинственный космический артефакт «Светоч». Проходит 25 лет и на Землю прилетает уничтожительница миров Серлина. Приняв образ сексапильной фотомодели, она начала поиски «Светоча». Чтобы не дать ни единого шанса Серлине артефакт нужно отыскать раньше неё, но есть одна проблема — после того как агенты Кей и Джей уничтожили четыре года назад хищного инопланетного таракана, Кею стёрли память. Теперь он мирно трудится в Почтовом департаменте. У него нет даже малейшего воспоминания о своём прошлом, и Джею, для спасения мира, во чтобы то ни стало нужно найти способ восстановить его память.-
Качество видео: BDRip-AVC
Контейнер: MKV
Стандарт разрешения: 1080p
Видео кодек: MPEG4 AVC
Аудио кодек: AC3
Видео: AVC/H.264, 1920x1040 (1.85:1), ~5847 Kbps
Аудио: AC3, 6 ch, 640 Kbps, 48,0 kHz
Cубтитры: русские
Формат субтитров: softsub (SRT)
Доп. информация о субтитрах: включаемые

Доп. информация

Изначально в финальной сцене фильма фигурировали здания Всемирного Торгового Центра, однако после трагических событий 11 сентября 2001 их изображение было заменено изображением здания Крайслер-билдинг.
Съёмки фильма начались в июне 2001 года в Нью-Йорке и были окончены в октябре того же года.
В эпизодических ролях снялись сыновья Уилла Смита и дочь Томми Ли Джонса, а также такие звезды, как Шакил О’Нил, Тайгер Вудс, Венус Уильямс и даже Майкл Джексон.
Фамке Янссен должна была сыграть Серлину, и даже снялась в нескольких эпизодах, но смерть в семье заставила её покинуть проект.
Девочку на почте сыграла дочь Барри Зонненфельда.
Конец фильма пародирует конец первого, где наша галактика оказывается всего-лишь одним из многих шариков для детской игры исполинских инопланетян.

Рецензия

Про вторую часть «Людей в чёрном» говорить что-то конкретное не обязательно, ибо данный фильм относится к тем творениям мирового кинематографа, про которые достаточно сказать, что фильм во всём равен оригиналу — и это будет самым исчерпывающим описанием фильма.И то, что я привёл выше, действительно так. Я не могу сказать, что «Люди в чёрном 2» превосходят в чём-либо оригинал. Знаете, бывает, когда снимают сиквел какого-либо фильма, случается, что авторы сиквела хотят что-то изменить, подправить, дабы сиквел вышел лучше оригинала, но выходит, наоборот, хуже. Бывают и случаи, когда перемены идут только к лучшему. Но существуют случаи, когда ничего не меняют на протяжении нескольких фильмов, но смотреть по-прежнему интересно. За примерами идти далеко не нужно: тот же «Шрэк» уже три фильма подряд предлагает нам смеяться над одними и теми же шутками в чуточку других вариациях, но мы не против, ибо нам по-прежнему смешно.Вот и «Люди в чёрном 2» — фильм, полностью тождественный оригиналу, изменён только сам сюжет, но и то в мелких делах. Опять на Земле находится особо опасный предмет, который, если его вовремя не отправить куда подальше с Земли, взорвётся вместе с нашей планетой. Даже двигается сюжет в том же ручье, что и оригинал: определённый враг землян инопланетного происхождения заинтересован в получении этого самого опасного предмета, который нужен ему для своих корыстных целей. Да и под конец (тут уж я молчок, извиняйте) всё тоже аналогично оригиналу.Правда, в мировом кинематографе бывают случаи, когда консерваторство только вредит фильму, но «Люди в чёрном 2» относятся к фильмам-исключениям из этого правила, т. к. первая часть — так уж вышло — стала идеальной, поэтому второй оставалось только не стать хуже, что она и сделала.Вердикт. Если Вы поклонник оригинального фильма, то сиквел Вам гарантированно понравится, если не поклонник — значения не имеет, ибо «Люди в чёрном» только кажутся научной фантастикой, а в глубине своей фильм — самая настоящая комедия. Поэтому вопрос смотреть фильм — не смотреть? надобно заменять иным вопросом: а Вам нравятся комедии?9 из 10(оценку выставил по правилу алгебраических тождеств: первый фильм получил у меня 9-ку, а вторая часть идентична ему по всем пунктам).

Media Info

Общее
Уникальный идентификатор : 254658236016944697774601882273253501519 (0xBF9564696189CF43B147A93B7FD92A4F)
Полное имя : F:\Люди в черном\Ljudi v CHornom-2.2002.1080p.BDRip-AVC.[pirat.ca].mkv
Формат : Matroska
Версия формата : Version 2
Размер файла : 3,99 Гбайт
Продолжительность : 1 ч. 28 м.
Общий поток : 6488 Кбит/сек
Дата кодирования : UTC 2016-09-12 12:59:18
Программа кодирования : mkvmerge v5.3.0 ('I could have danced') built on Feb 9 2012 10:38:07
Библиотека кодирования : libebml v1.2.3 + libmatroska v1.3.0Видео
Идентификатор : 1
Формат : AVC
Формат/Информация : Advanced Video Codec
Профиль формата : [email protected]/* */
Параметр CABAC формата : Да
Параметр ReFrames формата : 4 кадра
Режим смешивания : Header stripping
Идентификатор кодека : V_MPEG4/ISO/AVC
Продолжительность : 1 ч. 28 м.
Битрейт : 5847 Кбит/сек
Ширина : 1920 пикселей
Высота : 1040 пикселей
Соотношение сторон : 1,85:1
Режим частоты кадров : Постоянный
Частота кадров : 23,976 (24000/1001) кадра/сек
Цветовое пространство : YUV
Субдискретизация насыщенности : 4:2:0
Битовая глубина : 8 бит
Тип развёртки : Прогрессивная
Бит/(Пиксели*Кадры) : 0.122
Размер потока : 3,52 Гбайт (88%)
Библиотека кодирования : x264 core 148 r2694 3b70645
Настройки программы : cabac=1 / ref=4 / deblock=1:-2:-2 / analyse=0x3:0x133 / me=umh / subme=11 / psy=1 / psy_rd=1.00:0.25 / mixed_ref=1 / me_range=32 / chroma_me=1 / trellis=2 / 8x8dct=1 / cqm=0 / deadzone=21,11 / fast_pskip=0 / chroma_qp_offset=-4 / threads=12 / lookahead_threads=1 / sliced_threads=0 / nr=0 / decimate=1 / interlaced=0 / bluray_compat=0 / constrained_intra=0 / bframes=4 / b_pyramid=2 / b_adapt=2 / b_bias=0 / direct=3 / weightb=1 / open_gop=0 / weightp=2 / keyint=240 / keyint_min=23 / scenecut=40 / intra_refresh=0 / rc_lookahead=60 / rc=2pass / mbtree=1 / bitrate=5847 / ratetol=1.0 / qcomp=0.60 / qpmin=0 / qpmax=69 / qpstep=4 / cplxblur=20.0 / qblur=0.5 / ip_ratio=1.40 / aq=1:1.00
Язык : English
Default : Да
Forced : Нет
Statistics Tags Issue : mkvmerge v7.3.0 ('Nouages') 32bit built on Oct 22 2014 18:44:01 2016-08-07 11:46:48 / mkvmerge v5.3.0 ('I could have danced') built on Feb 9 2012 10:38:07 2016-09-12 12:59:18
FromStats_BitRate : 5846929
FromStats_Duration : 01:28:08.283000000
FromStats_FrameCount : 126792
FromStats_StreamSize : 3865027210Аудио
Идентификатор : 2
Формат : AC-3
Формат/Информация : Audio Coding 3
Расширение режима : CM (complete main)
Параметр Endianness формата : Big
Режим смешивания : Header stripping
Идентификатор кодека : A_AC3
Продолжительность : 1 ч. 28 м.
Вид битрейта : Постоянный
Битрейт : 640 Кбит/сек
Каналы : 6 каналов
Расположение каналов : Front: L C R, Side: L R, LFE
Частота : 48,0 КГц
Частота кадров : 31,250 кадров/сек (1536 spf)
Метод сжатия : С потерями
Размер потока : 403 Мбайт (10%)
Заголовок : Rus
Язык : Russian
Default : Да
Forced : Нет
Statistics Tags Issue : mkvmerge v7.3.0 ('Nouages') 32bit built on Oct 22 2014 18:44:01 2016-08-07 11:46:48 / mkvmerge v5.3.0 ('I could have danced') built on Feb 9 2012 10:38:07 2016-09-12 12:59:18
FromStats_BitRate : 640000
FromStats_Duration : 01:28:08.288000000
FromStats_FrameCount : 165259
FromStats_StreamSize : 423063040Текст
Идентификатор : 3
Формат : UTF-8
Идентификатор кодека : S_TEXT/UTF8
Идентификатор кодека/Информация : UTF-8 Plain Text
Заголовок : Rus
Язык : Russian
Default : Нет
Forced : Нет
Statistics Tags Issue : mkvmerge v7.3.0 ('Nouages') 32bit built on Oct 22 2014 18:44:01 2016-08-07 11:46:48 / mkvmerge v5.3.0 ('I could have danced') built on Feb 9 2012 10:38:07 2016-09-12 12:59:18
FromStats_BitRate : 118
FromStats_Duration : 01:20:00.755000000
FromStats_FrameCount : 1136
FromStats_StreamSize : 71262

Скриншот c названием фильма

Скриншоты

Трейлер

Яндекс.Метрика
Рейтинг@Mail.ru