Не пара [сезон 1, серий 1-10 из 10] (Стас Шмелев) [2015, Детектив, Мелодрама, Комедия, HDTVRip]

 

Создавать темы 12-Сен-2016 17:26

Не пара (сезон 1, серий 1-10 из 10)--- Год: 2015
Производство: Россия / "Кинокомпания Атмосфера" и "Студия Анкор" по заказу Телеканала "Россия-1"
Жанр: Детектив, Мелодрама, Комедия-Режиссер: Стас Шмелев
Актеры: Светлана Антонова, Антон Макарский, Константин Соловьёв, Илья Носков, Анатолий Лобоцкий, Максим Сальников, Наталия Просветова, Михаил Дорожкин, Светлана Тимофеева-Летуновская, Ричард Бондарев-Описание:
Ироничная история любви проницательной девушки-детектива Савельевой и изобретательного афериста Кострова. В самый разгар бурного романа пятнадцатилетней давности Костров был вынужден оставить Савельеву. И теперь судьба, возвращая долги, сводит их снова, чтобы правильная идеалистка и обаятельный сорвиголова смогли вновь обрести друг друга.Марина обескуражена таким поворотом событий – ее совсем не прельщает перспектива совместной работы. А вот Олег, напротив, решает во что бы то ни стало вернуть любовь и доверие Марины. И делать он это, разумеется, будет «своими» методами...- -Возраст: 12+ (зрителям, достигшим 12 лет)
Продолжительность: ~ 00:44:00 серия
Качество видео: HDTVRip-Видео: Xvid, 720x400 (16:9), ~1202 Kbps
Аудио: AC3, 2 ch, 192 Kbps, CBR-

Mediainfo:

Общее
Полное имя                               : D:\Мои фильмы\Ne_para_S1_1-10iz10_2016_XviD_HDTVRip\1.Найди того, не знаю кого.(1 сер.).avi
Формат                                   : AVI
Формат/Информация                        : Audio Video Interleave
Размер файла                             : 445 Мбайт
Продолжительность                        : 44 м.
Общий поток                              : 1403 Кбит/сек
Программа кодирования                    : VirtualDubMod 1.5.10.3 |(build 2550/release)
Библиотека кодирования                   : VirtualDub build 35491/release
Видео
Идентификатор                            : 0
Формат                                   : MPEG-4 Visual
Профиль формата                          : Advanced [email protected]
Параметр BVOP формата                    : 2
Параметр QPel формата                    : Нет
Параметр GMC формата                     : Без точки перехода
Параметр матрицы формата                 : Default (H.263)
Идентификатор кодека                     : XVID
Идентификатор кодека/Подсказка           : XviD
Продолжительность                        : 44 м.
Битрейт                                  : 1202 Кбит/сек
Ширина                                   : 720 пикселей
Высота                                   : 400 пикселей
Соотношение сторон                       : 16:9
Частота кадров                           : 25,000 кадров/сек
Цветовое пространство                    : YUV
Субдискретизация насыщенности            : 4:2:0
Битовая глубина                          : 8 бит
Тип развёртки                            : Прогрессивная
Метод сжатия                             : С потерями
Бит/(Пиксели*Кадры)                      : 0.167
Размер потока                            : 381 Мбайт (86%)
Библиотека кодирования                   : XviD 67
Аудио
Идентификатор                            : 1
Формат                                   : AC-3
Формат/Информация                        : Audio Coding 3
Расширение режима                        : CM (complete main)
Параметр Endianness формата              : Big
Идентификатор кодека                     : 2000
Продолжительность                        : 44 м.
Вид битрейта                             : Постоянный
Битрейт                                  : 192 Кбит/сек
Каналы                                   : 2 канала
Расположение каналов                     : Front: L R
Частота                                  : 48,0 КГц
Частота кадров                           : 31,250 кадров/сек (1536 spf)
Метод сжатия                             : С потерями
Размер потока                            : 60,9 Мбайт (14%)
Выравнивание                             : Соединение по промежуткам
Продолжительность промежутка             : 40  мс. (1,00 видеокадр)
Время предзагрузки промежутка            : 512  мс.
-

Дополнительная информация:

1-2 серия: Найди того, не знаю кого
Звезда следственного управления Марина Савельева элегантно вычисляет похитителя бриллиантов из банковского хранилища. К её изумлению, им оказывается тот, с кем судьба сводила её много лет назад. Вот только схваченный аферист Костров оказывается совсем и не прост – посадить его выходит, что не за что. И не было бы счастья, да несчастье помогло - полицейское начальство использует ситуацию, что бы привлечь Кострова к поимке хитроумного преступника, которого уже много лет не могут схватить. Сделать это Костров должен в паре с Савельевой, которая совершенно обескуражена таким поворотом дела.
3-4 серия: Исчезающий Рафаэль
Савельева, по личным мотивам, уходит из следственного управления. А в Национальной художественной галерее случается непостижимое – присланные Парижским Лувром картины кисти Рафаэля необъяснимым образом исчезают. Способ, которым они пропадают, говорит об исключительной изобретательности похитителей. Дело пахнет международным скандалом. Понимая, что своими силами с этим не справится, полицейское начальство привлекает к делу Савельеву. Савельева просит Кострова помочь ей, совсем не предполагая, что тот затеет при этом свою собственную игру.
5-6 серия: Бермудский треугольник
Из-за выходки Кострова в деле с картинами Рафаэля, Савельева не хочет больше общаться с ним. Влюбленный в Савельеву Костров обескуражен случившимся. Он узнает, что подруга Марины просит её помочь разобраться с необъяснимыми исчезновениями пациентов из своей клиники. Боясь, что займясь этим делом Савельева сама может пропасть, Костров находит способ тайно её опекать и проводит собственное расследование.
7-8 серия: Целитель
Решив завязать с аферами, Костров устраивает «дембельский аккорд» и… влипает в то, во что он даже подумать не мог. Савельева пытается спасти Кострова, но безуспешно. Марине даже не помогают знакомства в органах правопорядка. Больше того - наоборот, не укладывающиеся в голове обстоятельства разводят Марину и её бывших коллег по разные стороны баррикад. А ко всему прочему, еще и Костров выкидывает фокусы, от которых голова кругом идёт.
9-10 серия: Старый знакомый
Преодолев многие неприятности, Костров и Савельева как никогда близки к тому, что бы обрести друг друга. Но… за помощью к Марине обращается её старый знакомый Артём и она берется за его дело. Причём, по личным мотивам, решает вести его без Кострова. Костров подозревает неладное и… расследование загадочной гибели деловых партнеров Артёма, ко всему прочему, превращается в испытание на прочность чувств Савельевой и Кострова друг к другу
-Скриншоты:
Яндекс.Метрика
Рейтинг@Mail.ru