[ Сегодня на трекере фрилич! Идет свободное скачивание без начисления Download ]

P.S. Я люблю тебя / P.S. I Love You (Ричард ЛаГравенес / Richard LaGravenese) [2007 г., драма, мелодрама, BDRip, 720р] Dub + MVO (InterFilm) + AVO (Немахов) + VO (Дасевич, Колосов) + original (Eng)

 

Создавать темы 12-Сен-2016 03:56

P.S. Я люблю тебя / P.S. I Love You
Год выпуска: 2007
Мировая премьера: 20 декабря 2007
Российская премьера: 14 февряля 2008
Производство: США
Жанр: драма, мелодрама
Продолжительность: 2:06:01
Перевод 1: Профессиональный (полное дублирование) BD CEE
Перевод 2: Профессиональный (многоголосый закадровый) InterFilm
Перевод 3: Авторский (одноголосый закадровый) Немахов
Перевод 4: Профессиональный (одноголосый закадровый) Дасевич
Перевод 5: Любительский (одноголосый закадровый) КолосовОригинальный аудиопоток: английский
Субтитры: русские, английские (Softsub SRT)
Навигация по главам: Сохранена (как на блюрей)Режиссер: Ричард ЛаГравенес / Richard LaGraveneseВ ролях: Хилари Суэнк, Джерард Батлер, Джеффри Дин Морган, Лиза Кудроу, Кэти Бэйтс, Маркус Коллинз, Хэрри Конник-мл., Джеймс Марстерс, Дин Уинтерс, Стивен Сингер, Джина Гершон, Тони Девон, Майк ДойлОписание: Холи и Джерри – любящая друг друга семейная пара, которая мечтает прожить вместе счастливо долгие годы. Но случается непоправимое, муж главной героини умирает, ее горю нет конца. Однако покойный муж Холи позаботился о том, чтобы она с любовью вспоминала его и так не убивалась по нему. Находя 10 посланий от Джерри, каждое из которых заканчивается словами «Я тебя люблю», она вспоминает счастливые события своей жизни и открывает для себя мир заново. Любовь способна преодолеть все… даже смерть! Доказательство этому история Холи и ДжерриДоп. информация: По одноименному бестселлеру Сесилии Ахерн. "P.S. Я люблю тебя" — первый роман писательницы, который она написала в 21 год. Книга издана на 65-ти языках и занимает высшие места в рейтингах продаж., КиноПоискАвтор рипа: Качество: BDRip, 720р
Формат: MKV
Видео кодек: H.264
Аудио кодек: AC3, DTSВидео: MPEG4 Video (H264) 1280x696, 23.976fps, ~4 341 Kbps, 0.203 bit/pixelАудио 1: DTS 48000Hz 6ch 768kbps - dub (BD CEE)
Аудио 2: Dolby AC3, 48000Hz, 6ch, 384kbps - Interfilm
Аудио 3: Dolby AC3, 48000Hz, 6ch, 448kbps - Немахов
Аудио 4: Dolby AC3, 48000Hz, 6ch, 448kbps - Дасевич
Аудио 5: Dolby AC3, 48000Hz, stereo, 192kbps - Колосов
Аудио 6: Dolby AC3, 48000Hz, 6ch, 448kbps - original
Субтитры: Русские, Английские

Media Info

General
Уникальный идентификатор : 204169253959316019250369744495311051084 (0x99999167F241B2198B583E20E633D94C)
Полное имя : G:\фильмы HD\! новое\P.S. Я люблю тебя (P.S. I Love You, 2007, BDRip, 720p) dub-pm-Nemahov-Dasevich-L1-eng.mkv
Формат : Matroska
Версия формата : Version 2
Размер файла : 6.30 GiB
Продолжительность : 2h 6mn
Общий поток : 7 158 Kbps
Название фильма : rip by Gross
Дата кодирования : UTC 2016-03-19 16:14:34
Программа кодирования : mkvmerge v4.7.0 ('Just Like You Imagined') сборка от Apr 21 2011 01:13:14
Библиотека кодирования : libebml v1.2.0 + libmatroska v1.1.0Video
Идентификатор : 1
Формат : AVC
Формат/Информация : Advanced Video Codec
Профиль формата : [email protected]/* */
Параметр CABAC формата : Yes
Параметр ReFrames формата : 9 frames
Идентификатор кодека : V_MPEG4/ISO/AVC
Продолжительность : 2h 6mn
Битрейт : 4 341 Kbps
Ширина : 1 280 pixels
Высота : 696 pixels
Соотношение сторон : 1.85:1
Режим частоты кадров : Constant
Частота кадров : 23.976 fps
Цветовое пространство : YUV
Субдискретизация насыщенности : 4:2:0
Битовая глубина : 8 bits
Тип развёртки : Progressive
Бит/(Пиксели*Кадры) : 0.203
Размер потока : 3.82 GiB (61%)
Библиотека кодирования : x264 core 148 r2638kMod 7599210
Настройки программы : cabac=1 / ref=9 / deblock=1:-3:-3 / analyse=0x3:0x133 / me=umh / subme=11 / psy=1 / fade_compensate=0.00 / psy_rd=1.00:0.05 / mixed_ref=1 / me_range=32 / chroma_me=1 / trellis=2 / 8x8dct=1 / cqm=0 / deadzone=21,11 / fast_pskip=0 / chroma_qp_offset=-3 / threads=9 / lookahead_threads=2 / sliced_threads=0 / nr=0 / decimate=1 / interlaced=0 / bluray_compat=0 / constrained_intra=0 / fgo=0 / bframes=9 / b_pyramid=2 / b_adapt=2 / b_bias=0 / direct=1 / weightb=1 / open_gop=0 / weightp=2 / keyint=250 / keyint_min=23 / scenecut=40 / intra_refresh=0 / rc=crf / mbtree=0 / crf=18.5000 / qcomp=0.60 / qpmin=0 / qpmax=69 / qpstep=4 / ip_ratio=1.40 / pb_ratio=1.30 / aq=1:1.00
Язык : English
Default : Yes
Forced : NoAudio #1
Идентификатор : 2
Формат : DTS
Формат/Информация : Digital Theater Systems
Режим : 16
Параметр Endianness формата : Big
Идентификатор кодека : A_DTS
Продолжительность : 2h 6mn
Вид битрейта : Constant
Битрейт : 755 Kbps
Каналы : 6 channels
Расположение каналов : Front: L C R, Side: L R, LFE
Частота : 48.0 KHz
Битовая глубина : 24 bits
Метод сжатия : Lossy
Задержка видео : 44ms
Размер потока : 680 MiB (11%)
Заголовок : dub (BD CEE)
Язык : Russian
Default : Yes
Forced : YesAudio #2
Идентификатор : 3
Формат : AC-3
Формат/Информация : Audio Coding 3
Расширение режима : CM (complete main)
Параметр Endianness формата : Big
Идентификатор кодека : A_AC3
Продолжительность : 2h 6mn
Вид битрейта : Constant
Битрейт : 384 Kbps
Каналы : 6 channels
Расположение каналов : Front: L C R, Side: L R, LFE
Частота : 48.0 KHz
Битовая глубина : 16 bits
Метод сжатия : Lossy
Задержка видео : 4ms
Размер потока : 346 MiB (5%)
Заголовок : pm (Interfilm)
Язык : Russian
Default : No
Forced : NoAudio #3
Идентификатор : 4
Формат : AC-3
Формат/Информация : Audio Coding 3
Расширение режима : CM (complete main)
Параметр Endianness формата : Big
Идентификатор кодека : A_AC3
Продолжительность : 2h 6mn
Вид битрейта : Constant
Битрейт : 448 Kbps
Каналы : 6 channels
Расположение каналов : Front: L C R, Side: L R, LFE
Частота : 48.0 KHz
Битовая глубина : 16 bits
Метод сжатия : Lossy
Задержка видео : 4ms
Размер потока : 404 MiB (6%)
Заголовок : A1 (Nemahov)
Язык : Russian
Default : No
Forced : NoAudio #4
Идентификатор : 5
Формат : AC-3
Формат/Информация : Audio Coding 3
Расширение режима : CM (complete main)
Параметр Endianness формата : Big
Идентификатор кодека : A_AC3
Продолжительность : 2h 6mn
Вид битрейта : Constant
Битрейт : 448 Kbps
Каналы : 6 channels
Расположение каналов : Front: L C R, Side: L R, LFE
Частота : 48.0 KHz
Битовая глубина : 16 bits
Метод сжатия : Lossy
Задержка видео : 4ms
Размер потока : 404 MiB (6%)
Заголовок : p1 (Dasevich)
Язык : Russian
Default : No
Forced : NoAudio #5
Идентификатор : 6
Формат : AC-3
Формат/Информация : Audio Coding 3
Расширение режима : CM (complete main)
Параметр Endianness формата : Big
Идентификатор кодека : A_AC3
Продолжительность : 2h 6mn
Вид битрейта : Constant
Битрейт : 192 Kbps
Каналы : 2 channels
Расположение каналов : Front: L R
Частота : 48.0 KHz
Битовая глубина : 16 bits
Метод сжатия : Lossy
Задержка видео : 4ms
Размер потока : 173 MiB (3%)
Заголовок : L1 (V.Kolosov)
Язык : Russian
Default : No
Forced : NoAudio #6
Идентификатор : 7
Формат : AC-3
Формат/Информация : Audio Coding 3
Расширение режима : CM (complete main)
Параметр Endianness формата : Big
Идентификатор кодека : A_AC3
Продолжительность : 2h 6mn
Вид битрейта : Constant
Битрейт : 448 Kbps
Каналы : 6 channels
Расположение каналов : Front: L C R, Side: L R, LFE
Частота : 48.0 KHz
Битовая глубина : 16 bits
Метод сжатия : Lossy
Размер потока : 404 MiB (6%)
Заголовок : original
Язык : English
Default : No
Forced : NoText #1
Идентификатор : 8
Формат : UTF-8
Идентификатор кодека : S_TEXT/UTF8
Идентификатор кодека/Информация : UTF-8 Plain Text
Язык : Russian
Default : No
Forced : NoText #2
Идентификатор : 9
Формат : UTF-8
Идентификатор кодека : S_TEXT/UTF8
Идентификатор кодека/Информация : UTF-8 Plain Text
Язык : English
Default : No
Forced : NoMenu
00:00:00.000 : en:00:00:00.000
00:05:17.984 : en:00:05:17.984
00:10:18.618 : en:00:10:18.618
00:13:44.657 : en:00:13:44.657
00:22:36.689 : en:00:22:36.689
00:25:46.044 : en:00:25:46.044
00:28:47.059 : en:00:28:47.059
00:32:00.252 : en:00:32:00.252
00:37:40.925 : en:00:37:40.925
00:42:15.533 : en:00:42:15.533
00:47:17.334 : en:00:47:17.334
00:50:23.854 : en:00:50:23.854
00:53:07.518 : en:00:53:07.518
00:57:25.776 : en:00:57:25.776
01:00:37.133 : en:01:00:37.133
01:03:41.484 : en:01:03:41.484
01:09:06.642 : en:01:09:06.642
01:13:46.756 : en:01:13:46.756
01:19:05.574 : en:01:19:05.574
01:22:39.621 : en:01:22:39.621
01:25:45.474 : en:01:25:45.474
01:29:03.672 : en:01:29:03.672
01:36:34.455 : en:01:36:34.455
01:41:54.442 : en:01:41:54.442
01:45:46.173 : en:01:45:46.173
01:51:43.030 : en:01:51:43.030
01:57:55.902 : en:01:57:55.902
02:00:46.239 : en:02:00:46.239
02:06:02.680 : en:02:06:02.680

Скриншоты

Яндекс.Метрика
Рейтинг@Mail.ru