Частные уроки / Private Lessons (Алан Майерсон / Alan Myerson) [1981 г., комедия, DVDRip] VO

 

Создавать темы 12-Сен-2016 03:54

-Частные уроки / Private Lessons-- Производство: США, Barry & Enright Productions, Jensen Farley Pictures
Год выпуска: 1981 г.
Жанр: комедия
Продолжительность: 01:26:56Мировая премьера: 21 августа 1981
Перевод: Любительский (одноголосый, закадровый)
Режиссер: Алан Майерсон / Alan Myerson-В ролях: Сильвия Кристель, Ховард Хессеман, Эрик Браун, Патрик Пиччининни, Эд Бегли мл., Памела Джин Брайант, Меридит Баер, Рон Фостер, Питер Элблинг, Дэн Бэрроус-Описание: Очаровательная «Эммануэль» дает совершенно особенные частные уроки. Забавная комедия об искушении невинного. Полная комичных ситуаций история о первых любовных переживаниях подростка, столкнувшегося с коварным миром взрослых, происходит во время летних каникул в богатом доме, уютно расположившемся посреди идиллических пейзажей Аризоны.Уезжая в деловую поездку, мистер Филлмор отдает распоряжение прелестной домработнице Николь преподать своему 15-летнему сыну Филли частные сексуальные уроки.И Филли искренне влюбляется в Николь. А Николь, сговорившись со своим дружком, разыгрывает маленький спектакль, который может закончиться большими денежными неприятностями для юного Казановы.-
Качество видео: DVDRip
Контейнер: AVI
Видео кодек: XviD
Аудио кодек: AC3
Видео: 704x544 (1.29:1), 23.976 fps, XviD build 50 ~2198 kbps avg, 0.24 bit/pixel
Аудио: 48 kHz, AC3 Dolby Digital, 2/0 (L,R) ch, ~192 kbps
Cубтитры: отсутствуют

Доп. информация

Оригинальный трейлер и другие рекламные ролики были озвучены голосом известного телеведущего Джея Стюарта, который на тот момент работал на компанию Barry-Enright Productions, занимавшуюся производством фильма.
В одной из начальных сцен, после того как Филли наблюдает за Сильвией в бинокль, он просматривает журнал мод с фотографией полуобнажённой модели. Это Джиа Каранджи, известная фотомодель 70-x и 80-х, история которой была положена в основу картины «Джиа» (1998).
Во многих странах фильм первоначально был либо вовсе запрещён к показу, либо вышли его обрезанные версии.

Рецензия

Не педофилия, а обольщение невинногоК просмотру этого фильма меня привлекло название и описание, поскольку сразу было понятно, что история нестандартная и не будет напоминать типичную дешёвую порнушку. Будучи сторонником нежной, а не вульгарной эротики, я рассчитывал увидеть красивую историю о совращении несовершеннолетнего опытной женщиной — что ж, я получил желаемое, вполне. Кроме красивых откровенных сцен, в фильме оказался довольно интересный сюжет с разнообразными сюрпризами и поворотами, присутствуют криминальные элементы — фильм не дал заскучать, в отличие от поделок, которые раньше можно было увидеть ночью на канале РЕН-ТВ. В фильме порадовало практически всё: от динамичного сюжета до откровенных сцен, которые, пожалуй, на довольно высоком уровне для своих лет, и более шикарные сцены секса, отличающиеся нежностью, можно увидеть только в первой «Эммануэли» и в «Нежных кузинах» (последний и вовсе уникален, но не самый интересный сюжет омрачает шик откровенных сцен). В свою очередь, «Частные уроки» способны удивить историей подростка, которого покорила любовь ко взрослой женщине, благодаря чему он из глупого озабоченного пацана превратился в настоящего джентльмена.В роли обольстительницы мальчишеского сердца выступила актриса, известная зрителю по главной роли во франшизе про Эммануэль, где ей приходилось заниматься любовью на камеру не с одним мужчиной, недаром само имя Эммануэль считается символом секса. Но там ей не доводилось совращать малолетку, причём в корыстных целях, здесь же её героиня подозрительно ласкова с юным главным героем фильма, которого отец оставил одного дома, а за старшую оставил экономку Николь, которая проявляет к сыну своего работодателя знаки внимания, чего 15-летний девственник Филли никак не ожидал, хотя подсматривал за работницей своего дома в ванной, и он даже не сразу соглашается принять в сердце, что к нему «клеится» роскошная женщина — он не верит в своё счастье, но, когда у них начнётся роман (чему будут предшествовать забавные казусы, делающие фильм комедийным), он не будет подозревать, что зрелая любовница что-то скрывает от него.Раскрытие тайны главной героини может показаться полным бредом, но это становится неважно после того, как зрителю дают почву для доброго смеха, дают возможность налюбоваться на красивые откровенные сцены с участием Сильвии Кристель, и просто захватывают его воображение столь уникальной историей. Интересно, на съёмках она действительно занималась любовью с мальчиком, или это монтаж? В целом кино замечательное, для любителей самой красивой эротики.9 из 10

Media Info

Общее
Полное имя : J:\Частные уроки\CHastnye Uroki.1981.DVDRip.[pirat.ca].avi
Формат : AVI
Формат/Информация : Audio Video Interleave
Размер файла : 1,46 Гбайт
Продолжительность : 1 ч. 27 м.
Общий поток : 2400 Кбит/сек
Название фильма : CHastnye Uroki.1981.DVDRip.[pirat.ca]
Программа кодирования : VirtualDubMod 1.5.10.3 | www.virtualdub-fr.org || (build 2550/release)Видео
Идентификатор : 0
Формат : MPEG-4 Visual
Профиль формата : Advanced [email protected]/* */
Параметр BVOP формата : 1
Параметр QPel формата : Нет
Параметр GMC формата : Без точки перехода
Параметр матрицы формата : Default (MPEG)
Идентификатор кодека : XVID
Идентификатор кодека/Подсказка : XviD
Продолжительность : 1 ч. 27 м.
Битрейт : 2198 Кбит/сек
Ширина : 704 пикселя
Высота : 544 пикселя
Соотношение сторон : 1,294
Частота кадров : 23,976 (24000/1001) кадра/сек
Цветовое пространство : YUV
Субдискретизация насыщенности : 4:2:0
Битовая глубина : 8 бит
Тип развёртки : Прогрессивная
Метод сжатия : С потерями
Бит/(Пиксели*Кадры) : 0.239
Размер потока : 1,34 Гбайт (92%)
Библиотека кодирования : XviD 1.2.1 (UTC 2008-12-04)Аудио
Идентификатор : 1
Формат : AC-3
Формат/Информация : Audio Coding 3
Расширение режима : CM (complete main)
Параметр Endianness формата : Big
Идентификатор кодека : 2000
Продолжительность : 1 ч. 27 м.
Вид битрейта : Постоянный
Битрейт : 192 Кбит/сек
Каналы : 2 канала
Расположение каналов : Front: L R
Частота : 48,0 КГц
Частота кадров : 31,250 кадров/сек (1536 spf)
Метод сжатия : С потерями
Размер потока : 120 Мбайт (8%)
Выравнивание : Разделение по промежуткам
Продолжительность промежутка : 42 мс. (1,00 видеокадр)
Время предзагрузки промежутка : 500 мс.

Скриншот c названием фильма

Скриншоты

Трейлер
Яндекс.Метрика
Рейтинг@Mail.ru