Власть дракона (ТВ) / Dragon Storm (Стефен Ферст / Stephen Furst) [2004 г., фэнтези, боевик, DVDRip] MVO [R5]

 

Создавать темы 12-Сен-2016 03:47

-Власть дракона (ТВ) / Dragon Storm-- Производство: США, Германия
Год выпуска: 2004 г.
Жанр: фэнтези, боевик
Продолжительность: 01:26:23Мировая премьера: 24 января 2004
Дата выхода DVD: 10 февраля 2009, «Lizard Cinema Trade»
Перевод: Профессиональный (многоголосый, закадровый) [R5]
Режиссер: Стефен Ферст / Stephen Furst-В ролях: Джон Рис-Дэвис, Максвел Калфилд, Тони Амендола, Энджел Борис, ...-Описание: Затерянная в легендах эпоха. Драконы правят землёй. Но это не мудрые драконы из сказок, а безжалостные и кровавые хищники, единственная цель которых продолжить свой род, уничтожая другую жизнь на планете.Последние безопасные уголки на земле — неприступные замки, где собраны разрозненные люди, объятые паническим страхом за свою жизнь. Но никакие стены скоро не смогут противостоять натиску чудовищных летающих ящеров, с каждым годом они становятся умнее, хитрее, а каждое следующее поколение больше.Только когда появился герой, способный противостоять злой силе драконов, в душах людей проснулась надежда. С каждым днём к отряду охотников на драконов присоединялись новые рыцари. Неся огромные потери, но убивая чудовищ и освобождая земли из-под ига кровавых властителей, отряд борется за право на жизнь всего человечества.-
Качество видео: DVDRip
Контейнер: AVI
Видео кодек: XviD
Аудио кодек: AC3
Видео: 720x544 (1.32:1), 25 fps, XviD build 47 ~1909 kbps avg, 0.20 bit/pixel
Аудио: 48 kHz, AC3 Dolby Digital, 3/2 (L,C,R,l,r) + LFE ch, ~384 kbps
Cубтитры: отсутствуют

Рецензия

настоящее кино!+Чего нельзя было ожидать от таких безнадежных продюсеров, как Джеффри Бич и Филлип Рот, так это нормального в плане качества и сюжета кино! Но этот фильм меня просто удивил! Его бюджет- 1 миллион долларов, а выглядит так, как будто в нем минимум 50!Драконы- это отдельное слово, сделаны очень хорошо и красиво! Но кроме драконов мне очень понравился актерский состав, который сильно звездами не блещет, не считая Рис-Девидса и Энджел Борис, но все играли очень хорошо для такого фильма, главное что каждый актер передал характер своего героя, особенно понравился китаец! Когда смотришь этот фильм уже любуешься не крылатыми тварями, а дружбой, которая сложилась между людьми которые объединились чтобы дать отпор тварям и смотрится это очень интересно и душевно!Не лишен фильм и юмора, поэтому такого серьезного сюжета, как во Власти огня ожидать не стоит, но это его совершенно не портит, поэтому рекомендую к просмотру!На удивление хорошее кино!10 из 10

Media Info

Общее
Полное имя : E:\!Власть дракона - Dragon Storm\Vlast Drakona.2004.DVDRip.[pirat.ca].avi
Формат : AVI
Формат/Информация : Audio Video Interleave
Размер файла : 1,36 Гбайт
Продолжительность : 1 ч. 24 м.
Общий поток : 2300 Кбит/сек
Программа кодирования : VirtualDubMod 1.5.4.1 (build 2178/release)
Библиотека кодирования : VirtualDubMod build 2178/releaseВидео
Идентификатор : 0
Формат : MPEG-4 Visual
Профиль формата : Advanced [email protected]/* */
Параметр BVOP формата : 1
Параметр QPel формата : Нет
Параметр GMC формата : Без точки перехода
Параметр матрицы формата : Выборочная
Идентификатор кодека : XVID
Идентификатор кодека/Подсказка : XviD
Продолжительность : 1 ч. 24 м.
Битрейт : 1909 Кбит/сек
Ширина : 720 пикселей
Высота : 544 пикселя
Соотношение сторон : 4:3
Частота кадров : 25,000 кадров/сек
Цветовое пространство : YUV
Субдискретизация насыщенности : 4:2:0
Битовая глубина : 8 бит
Тип развёртки : Прогрессивная
Метод сжатия : С потерями
Бит/(Пиксели*Кадры) : 0.195
Размер потока : 1,13 Гбайт (83%)
Библиотека кодирования : XviD 1.2.0.dev47 (UTC 2006-11-01)Аудио
Идентификатор : 1
Формат : AC-3
Формат/Информация : Audio Coding 3
Расширение режима : CM (complete main)
Параметр Endianness формата : Big
Идентификатор кодека : 2000
Продолжительность : 1 ч. 24 м.
Вид битрейта : Постоянный
Битрейт : 384 Кбит/сек
Каналы : 6 каналов
Расположение каналов : Front: L C R, Side: L R, LFE
Частота : 48,0 КГц
Частота кадров : 31,250 кадров/сек (1536 spf)
Метод сжатия : С потерями
Размер потока : 233 Мбайт (17%)
Выравнивание : Разделение по промежуткам
Продолжительность промежутка : 96 мс. (2,40 видеокадра)
Время предзагрузки промежутка : 96 мс.
Язык : Russian

Скриншот c названием фильма

Скриншоты

Трейлер
Яндекс.Метрика
Рейтинг@Mail.ru