[ Сегодня на трекере фрилич! Идет свободное скачивание без начисления Download ]

Учитель английского / The English Teacher (Крейг Зиск / Craig Zisk) [2012 г., драма, комедия, HDRip] MVO (Лицензия)

 

Создавать темы 05-Янв-2014 09:59

-Учитель английского
The English Teacher
«Refuse to live life by the book»
-- Производство: США
Год выпуска: 2012 г.
Жанр: драма, комедия
Продолжительность: 01:31:46
Мировая премьера: 26 апреля 2013
Дата выхода DVD: 24 октября 2013, «Вольга»
Перевод: Профессиональный (многоголосый) [Лицензия]
Режиссер: Крейг Зиск / Craig Zisk-В ролях: Джулианна Мур (Julianne Moore), Майкл Ангарано (Michael Angarano), Грег Киннер (Greg Kinnear), Лили Коллинз (Lily Collins), Фиона Шоу (Fiona Shaw), Норберт Лео Батц (Norbert Leo Butz), Джессика Хехт (Jessica Hecht), Чарли Сэкстон (Charlie Saxton), Нэйтан Лейн (Nathan Lane), Никки Блонски (Nikki Blonsky), Софи Кертис (Sophie Curtis), Алан Айсинберг (Alan Aisenberg), Sasha Almedia-Beers, Реми Обержене (Remy Auberjonois), Пунам Басу (Poonam Basu), Джим Брюэр (Jim Breuer)- -Описание: Линда, одинокая учительница английского языка в маленьком городке Кингстон, всю жизнь работает в школе, очень любит свой предмет, но в личной жизни у нее не все так радужно. Жизнь Линды кардинально меняется, когда ее бывший ученик Джейсон возвращается из Нью-Йорка в свой маленький городок после неудачной попытки поставить там свою пьесу. Между Линдой и Джейсоном вспыхивает бурный роман. И теперь Линда всеми силами будет стараться помочь Джейсону как можно быстрее стать успешным драматургом…- -Качество видео: HDRip
Контейнер: AVI
Видео кодек: XviD
Аудио кодек: AC3
Видео: 720x304 (2.37:1), 23.976 fps, XviD build 50 ~1674 kbps avg, 0.32 bit/pixel
Аудио: Rus: 48 kHz, AC3 Dolby Digital, 3/2 (L,C,R,l,r) + LFE ch, ~448 kbps - MVO [Лицензия]
Cубтитры: отсутствуют-

Media Info

Общее
Полное имя : D:\Uchitel.anglijskogo.2012.P.HDRip.1400Mb.avi
Формат : AVI
Формат/Информация : Audio Video Interleave
Размер файла : 1,37 Гбайт
Продолжительность : 1 ч. 31 м.
Общий поток : 2132 Кбит/сек
Программа кодирования : VirtualDubMod 1.5.10.3 | www.virtualdub-fr.org || (build 2550/release)
Библиотека кодирования : VirtualDubMod build 2550/release
Видео
Идентификатор : 0
Формат : MPEG-4 Visual
Профиль формата : Advanced [email protected]
Параметр BVOP формата : 1
Параметр QPel формата : Нет
Параметр GMC формата : Без точки перехода
Параметр матрицы формата : Выборочная
Идентификатор кодека : XVID
Идентификатор кодека/Подсказка : XviD
Продолжительность : 1 ч. 31 м.
Битрейт : 1675 Кбит/сек
Ширина : 720 пикселей
Высота : 304 пикселя
Соотношение сторон : 2,35:1
Частота кадров : 23,976 кадра/сек
Цветовое пространство : YUV
Субдискретизация насыщенности : 4:2:0
Битовая глубина : 8 бит
Тип развёртки : Прогрессивная
Метод сжатия : С потерями
Бит/(Пиксели*Кадры) : 0.319
Размер потока : 1,07 Гбайт (79%)
Библиотека кодирования : XviD 1.2.1 (UTC 2008-12-04)
Аудио
Идентификатор : 1
Формат : AC-3
Формат/Информация : Audio Coding 3
Расширение режима : CM (complete main)
Параметр Endianness формата : Big
Идентификатор кодека : 2000
Продолжительность : 1 ч. 31 м.
Вид битрейта : Постоянный
Битрейт : 448 Кбит/сек
Каналы : 6 каналов
Расположение каналов : Front: L C R, Side: L R, LFE
Частота : 48,0 КГц
Битовая глубина : 16 бит
Метод сжатия : С потерями
Размер потока : 294 Мбайт (21%)
Выравнивание : Разделение по промежуткам
Продолжительность промежутка : 42 мс. (1,00 видеокадр)
Время предзагрузки промежутка : 500 мс.
-

Скриншоты

-
Яндекс.Метрика
Рейтинг@Mail.ru