[ Сегодня на трекере фрилич! Идет свободное скачивание без начисления Download ]

Уитчвилль: Город ведьм (ТВ) / Witchville (Тео Пирри / Pearry Reginald Teo) [2010 г., фэнтези, приключения, HDRip] MVO

 

Создавать темы 12-Сен-2016 03:30

-Уитчвилль: Город ведьм (ТВ) / Witchville-- Производство: США, Witchville Productions
Год выпуска: 2010 г.
Жанр: фэнтези, приключения
Продолжительность: 01:29:49Мировая премьера: 22 мая 2010
Дата выхода DVD: 29 сентября 2011, «Вольга»
Перевод: Профессиональный (многоголосый, закадровый) [R5]
Режиссер: Тео Пирри / Pearry Reginald Teo-В ролях: Люк Госс, Эдвард Спелирс, Эндрю Плевин, Саймон Торп, Сара Дуглас, МайАнна Бёринг, Йен Вирго, Джиллиан Тан, Линн Верралл-Описание: 1487 год. Инквизитор Генрих Крамер заканчивает работу над «Молотом ведьм» — книгой, которой суждено стать самым известным средневековым трактатом по демонологии. Одни считают теолога верным слугой церкви, другие — кровожадным шарлатаном.Сам же он, не считаясь с мнением толпы, отправляется вершить Божий суд в городок Вальдерштадт, где ему предстоит сразиться с Красной королевой. Миссия Крамера — истребить зло, цель колдуньи — заполучить «Молот ведьм». Смертельная битва начинается!-
Качество видео: HDRip
Контейнер: AVI
Видео кодек: XviD
Аудио кодек: AC3
Видео: 720x400 (1.80:1), 23.976 fps, XviD build 46 ~1723 kbps avg, 0.25 bit/pixel
Аудио: 48 kHz, AC3 Dolby Digital, 3/2 (L,C,R,l,r) + LFE ch, ~256 kbps
Cубтитры: отсутствуют

Трейлер

Media Info

Общее
Полное имя : E:\!Вичвилль - Witchville\Gorod ved'm.2010.HDRip.[pirat.ca].avi
Формат : AVI
Формат/Информация : Audio Video Interleave
Размер файла : 1,24 Гбайт
Продолжительность : 1 ч. 29 м.
Общий поток : 1989 Кбит/сек
Название фильма : Gorod ved'm.2010.HDRip.[pirat.ca]
Программа кодирования : VirtualDubMod 1.5.10.3 (build 2550/release)
Библиотека кодирования : VirtualDubMod build 2550/releaseВидео
Идентификатор : 0
Формат : MPEG-4 Visual
Профиль формата : Advanced [email protected]/* */
Параметр BVOP формата : 1
Параметр QPel формата : Нет
Параметр GMC формата : Без точки перехода
Параметр матрицы формата : Default (MPEG)
Идентификатор кодека : XVID
Идентификатор кодека/Подсказка : XviD
Продолжительность : 1 ч. 29 м.
Битрейт : 1724 Кбит/сек
Ширина : 720 пикселей
Высота : 400 пикселей
Соотношение сторон : 16:9
Частота кадров : 23,976 (23976/1000) кадра/сек
Цветовое пространство : YUV
Субдискретизация насыщенности : 4:2:0
Битовая глубина : 8 бит
Тип развёртки : Прогрессивная
Метод сжатия : С потерями
Бит/(Пиксели*Кадры) : 0.250
Размер потока : 1,08 Гбайт (87%)
Библиотека кодирования : XviD 1.1.2 (UTC 2006-11-01)Аудио
Идентификатор : 1
Формат : AC-3
Формат/Информация : Audio Coding 3
Расширение режима : CM (complete main)
Параметр Endianness формата : Big
Идентификатор кодека : 2000
Продолжительность : 1 ч. 29 м.
Вид битрейта : Постоянный
Битрейт : 256 Кбит/сек
Каналы : 6 каналов
Расположение каналов : Front: L C R, Side: L R, LFE
Частота : 48,0 КГц
Частота кадров : 31,250 кадров/сек (1536 spf)
Метод сжатия : С потерями
Размер потока : 164 Мбайт (13%)
Выравнивание : Разделение по промежуткам
Продолжительность промежутка : 42 мс. (1,00 видеокадр)
Время предзагрузки промежутка : 500 мс.

Скриншот c названием фильма

Скриншоты

Яндекс.Метрика
Рейтинг@Mail.ru