Улики / Evidence (Олатунде Осунсанми / Olatunde Osunsanmi) [2012 г., триллер, ужасы, HDRip] Dub [Лицензия] «Каравелла DDC»

 

Создавать темы 05-Янв-2014 09:51

-Улики
Evidence
«Собери ужас по фрагментам»
-- Производство: США
Год выпуска: 2012 г.
Жанр: триллер, ужасы
Продолжительность: 01:33:57
Мировая премьера: 2 мая 2013
Российская премьера: 4 июля 2013, «Каравелла DDC»
Дата выхода DVD: 7 августа 2013, «Кармен Видео»
Перевод: Профессиональный (полное дублирование) [Лицензия]
Режиссер: Олатунде Осунсанми / Olatunde Osunsanmi-В ролях: Рада Митчелл (Radha Mitchell), Нолан Фанк (Nolan Funk), Торри ДеВито (Torrey DeVitto), Дейл Дикки (Dale Dickey), Стивен Мойер (Stephen Moyer), Гарри Дж. Ленникс (Harry J. Lennix), Кэйтлин Стэйси (Caitlin Stasey), Амл Амин (Aml Ameen), Барак Хардли (Barak Hardley), Джон Хеймс Ньютон (John Haymes Newton), Светлана Меткина (Svetlana Metkina), Джеймс Райен (James Ryen), Крис Джай Алекс (Chris Jai Alex), Крис Фронтьеро (Chris Frontiero), Алиша Ситон (Alisha Seaton), Альберт Куо ((Albert Kuo)- -Описание: В автобусе, направлявшемся в Лас-Вегас, совершено жестокое убийство. На месте преступления — ни одного уцелевшего. Только несколько трупов и хаотичный набор мобильных телефонов, карманных видеокамер и других устройств, оставшихся от потерпевших. Детектив, которому поручено расследование, с помощью сохранившихся записей пытается восстановить цепь загадочных событий, приведших к трагедии.- -Качество видео: HDRip
Контейнер: AVI
Видео кодек: XviD
Аудио кодек: AC3
Видео: 720x304 (2.35:1), 23.976 fps, XviD build 73 ~1999 kbps avg, 0.38 bit/pixel
Аудио: Rus: 48 kHz, AC3 Dolby Digital, 2/0 (L,R) ch, ~192 kbps - Дубляж [Лицензия]
Cубтитры: отсутствуют-

Media Info

Общее
Полное имя : D:\Yliki.2013.HDRip[pirat.ca].avi
Формат : AVI
Формат/Информация : Audio Video Interleave
Размер файла : 1,44 Гбайт
Продолжительность : 1 ч. 33 м.
Общий поток : 2201 Кбит/сек
Программа кодирования : VirtualDubMod 1.5.10.2 (build 2540/release)
Библиотека кодирования : VirtualDubMod build 2540/release
Видео
Идентификатор : 0
Формат : MPEG-4 Visual
Профиль формата : Advanced [email protected]
Параметр BVOP формата : 1
Параметр QPel формата : Нет
Параметр GMC формата : Без точки перехода
Параметр матрицы формата : Выборочная
Идентификатор кодека : XVID
Идентификатор кодека/Подсказка : XviD
Продолжительность : 1 ч. 33 м.
Битрейт : 1999 Кбит/сек
Ширина : 720 пикселей
Высота : 304 пикселя
Соотношение сторон : 2,35:1
Частота кадров : 23,976 кадра/сек
Цветовое пространство : YUV
Субдискретизация насыщенности : 4:2:0
Битовая глубина : 8 бит
Тип развёртки : Прогрессивная
Метод сжатия : С потерями
Бит/(Пиксели*Кадры) : 0.381
Размер потока : 1,31 Гбайт (91%)
Библиотека кодирования : XviD 73
Аудио
Идентификатор : 1
Формат : AC-3
Формат/Информация : Audio Coding 3
Расширение режима : CM (complete main)
Параметр Endianness формата : Big
Идентификатор кодека : 2000
Продолжительность : 1 ч. 33 м.
Вид битрейта : Постоянный
Битрейт : 192 Кбит/сек
Каналы : 2 канала
Расположение каналов : Front: L R
Частота : 48,0 КГц
Битовая глубина : 16 бит
Метод сжатия : С потерями
Размер потока : 129 Мбайт (9%)
Выравнивание : Соединение по промежуткам
Продолжительность промежутка : 42 мс. (1,00 видеокадр)
Время предзагрузки промежутка : 512 мс.
-

Скриншоты

-
Яндекс.Метрика
Рейтинг@Mail.ru