Люди в черном / Men in Black (Барри Зонненфельд / Barry Sonnenfeld) [1997 г., Фантастика, Комедия, Боевик, BDRip-AVC, 1080p] Dub [МОСФИЛЬМ-мастер] + Sub (Rus)

 

Создавать темы 11-Сен-2016 02:54

-Люди в черном / Men in Black-- Производство: США
Год выпуска: 1997 г.
Жанр: Фантастика, Комедия, Боевик
Продолжительность: 01:37:58Мировая премьера: 2 июля 1997
Дата выхода DVD: 20 июля 2007, «Columbia/Sony»
Дата выхода Blu-Ray: 25 сентября 2008, «Columbia/Sony»Перевод: Профессиональный (полное дублирование) [МОСФИЛЬМ-мастер]
Режиссер: Барри Зонненфельд / Barry Sonnenfeld-В ролях: Томми Ли Джоунс, Уилл Смит, Линда Фиорентино, Винсент Д'Онофрио, Рип Торн, Шэлоуб Тони, Шавон Фэллон, Майк Нассбаум, Джон Грис, Серджо Калдерон, Карел Стрюкен, Фредрик Лэйн, Ричард Хэмилтон, Кент Фолкон, Джон Александер, Кит Кэмпбелл, Кен Торли, Патрик Брин, Бекки Энн Бэйкер, Шон Уэйлен, Майкл Уиллис, Дэвид Кросс, Чарлз С. Стивенсон-младший, Jr., Борис Лескин, Стив Рэнкин, Дебби Ли Кэррингтон-Описание: Они — самый большой секрет Земли. Они работают на неофициальное правительственное агентство, регулирующее деятельность инопланетян на Земле.
Они — это лучшая, последняя и единственная линия защиты Земли от отбросов вселенной. Их работа секретна, их оружие совершенно, им нет равных, они не оставляют следов. Они — это Люди в черном.-
Качество видео: BDRip-AVC
Контейнер: MKV
Стандарт разрешения: 1080p
Видео кодек: MPEG4 AVC
Аудио кодек: AC3
Видео: AVC/H.264, 1920x1040 (1.85:1), ~5642 Kbps, 23,976 (24000/1001) fps
Аудио: AC3, 6 ch, 448 Kbps, 48,0 kHz
Cубтитры: русские
Формат субтитров: softsub (SRT)
Доп. информация о субтитрах: включаемые

Доп. информация

Люди в чёрном появляются в 20 эпизоде 3 сезона сериала «Секретные Материалы» (1993-2002) и упоминаются в этом же сериале в 15 эпизоде 9 сезона, а также сам фильм упоминается в 1 эпизоде 6 сезона.
Уилл Смит после прочтения сценария не хотел играть в фильме, но его жена (Джада Пинкетт Смит) убедила его согласиться.
Агента J могли сыграть Крис О`Доннелл и Дэвид Швиммер.
Клинту Иствуду предлагали роль K, но он отказался.
Квентин Тарантино мог занять место режиссёра.
На экране наблюдения за пришельцами можно увидеть много знаменитостей, например: Сильвестра Сталлоне, Дэнни ДеВито, Айзека Мизрахи, Стивена Спилберга, Джорджа Лукаса и дочь режиссера Хлою Сонненфельд.
Продюсер ленты специально заказал для актёров часы с ассиметричными корпусами, так как посчитал, что так образ будет лучше сочетаться. Тогда были выпущены специальные реплики классических моделей Hamilton Ventura с черным циферблатом.

Награды

Оскар, 1998 год
Победитель (1):
Лучший грим
Номинации (2):
Лучшие декорации
Лучший саундтрек к музыкальному/комедийному фильму
Золотой глобус, 1998 год
Номинации (1):
Лучший фильм (комедия или мюзикл)
Премия канала «MTV», 1998 год
Победитель (2):
Лучшая песня — «Men In Black»
Лучшая драка
Номинации (3):
Лучший фильм
Лучшая комедийная роль (Уилл Смит)
Лучший экранный дуэт (Томми Ли Джонс, Уилл Смит)
Британская академия, 1998 год
Номинации (1):
Лучшие визуальные эффекты
Сатурн, 1998 год
Победитель (3):
Лучший научно-фантастический фильм
Лучший актер второго плана ( Винсент Д’Онофрио )
Лучшая музыка
Номинации (5):
Лучший режиссер (Барри Зонненфельд)
Лучший актер (Уилл Смит)
Лучшие спецэффекты
Лучший сценарий
Лучший грим

Рецензия

Фильм детстваЧеловечество уже на протяжении многих лет пытается войти в контакт с инопланетным разумом. Однако на самом деле пришельцы живут среди нас уже многие годы. Их деятельность на Земле контролирует сверхсекретная организация под названием «Люди в чёрном». Когда одному из бывалых агентов Кею требуется новый напарник, то набирается большое число добровольцев, однако выбор останавливается на молодом полицейском, который неплохо себя проявил при попытке задержать гостя с другой планеты. В дальнейшем двое напарников попадают в головокружительные приключения, и именно от их действий зависит судьба Земли. Вот такой, незамысловатый на первый взгляд, сюжет был создан для фильма «Люди в чёрном», однако то как он подан позволяет картине выделится на фоне похожих фильмов.В отличие от большинства конкурентов атмосфера фильма пропитана искромётным юмором. Причём все смешные моменты грамотно подобраны и распределены по экранному времени, что не позволяет картине скатиться в глупую комедию или стать слишком серьёзным фильмом о спасение мира.Не смотря на комедийную направленность фильм, имеет неплохие спецэффекты. Способные по соперничать с ведущими блокбастерами того времени.В итоге фильм «Люди в чёрном» — это отличная фантастическая комедия с хорошим юмором, интересным сюжетом, отличным актёрским составом и зрелищными спецэффектами. Но самое главное эта картина является частью детства как моего, так и многих других людей. Фильм, безусловно, рекомендуем к просмотру.9 из 10

Media Info

Общее
Уникальный идентификатор : 208647267024526353310268690197279533428 (0x9CF8007EFD5ED744B577FC418F31E974)
Полное имя : F:\Люди в черном\Ljudi v CHornom.1997.1080p.BDRip-AVC.[pirat.ca].mkv
Формат : Matroska
Версия формата : Version 2
Размер файла : 3,86 Гбайт
Продолжительность : 1 ч. 37 м.
Общий поток : 5642 Кбит/сек
Дата кодирования : UTC 2016-09-10 18:15:07
Программа кодирования : mkvmerge v5.3.0 ('I could have danced') built on Feb 9 2012 10:38:07
Библиотека кодирования : libebml v1.2.3 + libmatroska v1.3.0Видео
Идентификатор : 1
Формат : AVC
Формат/Информация : Advanced Video Codec
Профиль формата : [email protected]/* */
Параметр CABAC формата : Да
Параметр ReFrames формата : 4 кадра
Идентификатор кодека : V_MPEG4/ISO/AVC
Продолжительность : 1 ч. 37 м.
Битрейт : 5195 Кбит/сек
Ширина : 1920 пикселей
Высота : 1040 пикселей
Соотношение сторон : 1,85:1
Режим частоты кадров : Постоянный
Частота кадров : 23,976 (24000/1001) кадра/сек
Цветовое пространство : YUV
Субдискретизация насыщенности : 4:2:0
Битовая глубина : 8 бит
Тип развёртки : Прогрессивная
Бит/(Пиксели*Кадры) : 0.109
Размер потока : 3,48 Гбайт (90%)
Библиотека кодирования : x264 core 148 r2694 3b70645
Настройки программы : cabac=1 / ref=4 / deblock=1:-2:-2 / analyse=0x3:0x133 / me=umh / subme=11 / psy=1 / psy_rd=1.00:0.25 / mixed_ref=1 / me_range=32 / chroma_me=1 / trellis=2 / 8x8dct=1 / cqm=0 / deadzone=21,11 / fast_pskip=0 / chroma_qp_offset=-4 / threads=12 / lookahead_threads=1 / sliced_threads=0 / nr=0 / decimate=1 / interlaced=0 / bluray_compat=0 / constrained_intra=0 / bframes=4 / b_pyramid=2 / b_adapt=2 / b_bias=0 / direct=3 / weightb=1 / open_gop=0 / weightp=2 / keyint=240 / keyint_min=23 / scenecut=40 / intra_refresh=0 / rc_lookahead=60 / rc=2pass / mbtree=1 / bitrate=5195 / ratetol=1.0 / qcomp=0.60 / qpmin=0 / qpmax=69 / qpstep=4 / cplxblur=20.0 / qblur=0.5 / ip_ratio=1.40 / aq=1:1.00
Язык : English
Default : Да
Forced : Нет
Statistics Tags Issue : mkvmerge v7.3.0 ('Nouages') 32bit built on Oct 22 2014 18:44:01 2016-08-07 10:06:36 / mkvmerge v5.3.0 ('I could have danced') built on Feb 9 2012 10:38:07 2016-09-10 18:15:07
FromStats_BitRate : 5192361
FromStats_Duration : 01:37:58.873000000
FromStats_FrameCount : 140952
FromStats_StreamSize : 3815654074Аудио
Идентификатор : 2
Формат : AC-3
Формат/Информация : Audio Coding 3
Расширение режима : CM (complete main)
Параметр Endianness формата : Big
Идентификатор кодека : A_AC3
Продолжительность : 1 ч. 37 м.
Вид битрейта : Постоянный
Битрейт : 448 Кбит/сек
Каналы : 6 каналов
Расположение каналов : Front: L C R, Side: L R, LFE
Частота : 48,0 КГц
Частота кадров : 31,250 кадров/сек (1536 spf)
Метод сжатия : С потерями
Размер потока : 314 Мбайт (8%)
Заголовок : Rus
Язык : Russian
Default : Да
Forced : Нет
Statistics Tags Issue : mkvmerge v7.3.0 ('Nouages') 32bit built on Oct 22 2014 18:44:01 2016-08-07 10:06:36 / mkvmerge v5.3.0 ('I could have danced') built on Feb 9 2012 10:38:07 2016-09-10 18:15:07
FromStats_BitRate : 448000
FromStats_Duration : 01:37:58.880000000
FromStats_FrameCount : 183715
FromStats_StreamSize : 329217280Текст #1
Идентификатор : 3
Формат : UTF-8
Идентификатор кодека : S_TEXT/UTF8
Идентификатор кодека/Информация : UTF-8 Plain Text
Заголовок : Rus forced
Язык : Russian
Default : Да
Forced : Да
Statistics Tags Issue : mkvmerge v7.3.0 ('Nouages') 32bit built on Oct 22 2014 18:44:01 2016-08-07 10:06:36 / mkvmerge v5.3.0 ('I could have danced') built on Feb 9 2012 10:38:07 2016-09-10 18:15:07
FromStats_BitRate : 4
FromStats_Duration : 00:37:59.855000000
FromStats_FrameCount : 29
FromStats_StreamSize : 1357Текст #2
Идентификатор : 4
Формат : UTF-8
Идентификатор кодека : S_TEXT/UTF8
Идентификатор кодека/Информация : UTF-8 Plain Text
Заголовок : Rus Full
Язык : Russian
Default : Нет
Forced : Нет
Statistics Tags Issue : mkvmerge v7.3.0 ('Nouages') 32bit built on Oct 22 2014 18:44:01 2016-08-07 10:06:36 / mkvmerge v5.3.0 ('I could have danced') built on Feb 9 2012 10:38:07 2016-09-10 18:15:07
FromStats_BitRate : 91
FromStats_Duration : 01:27:12.728000000
FromStats_FrameCount : 1133
FromStats_StreamSize : 60125

Скриншот c названием фильма

Скриншоты

Трейлер

Яндекс.Метрика
Рейтинг@Mail.ru