[ Сегодня на трекере фрилич! Идет свободное скачивание без начисления Download ]

Виртуальное оружие / Cyberflic (Антонио Маргерити / Antonio Margheriti) [1997 г., комедия, DVDRip] MVO [ТВ3]

 

Создавать темы 11-Сен-2016 02:52

-Виртуальное оружие / Cyberflic-- Производство: Франция, Италия
Год выпуска: 1997 г.
Жанр: комедия
Продолжительность: 01:29:41Мировая премьера: 25 августа 1997
Перевод: Профессиональный (многоголосый, закадровый) [ТВ3]
Режиссер: Антонио Маргерити / Antonio Margheriti-В ролях: Теренс Хилл, Марвелос Марвин Хэглер, Джей Амор, Тед Бартщ, Хуан С. Бофилл, Либби Брайан, Стефен Эдвард, Хорхе Джил.-Описание: Сотрудник секретного подразделения ФБР Скимз прилетает в Майами из Вашингтона, чтобы арестовать торговца оружием Абеля Ван Акселя. Ему помогают в этом чрезвычайно опасном и важном задании — детектив из полиции Майами Марвин и восхитительно управляющаяся с компьютерами 10-летняя Лоли, дочь полицейской Чело.
Скимз и Марвин проникают в особняк Ван Акселя, причем Скимз изображает джазового пианиста, а Марвин, несмотря на то, что полностью лишен музыкального слуха, певца, и «вечеринка» начинается…-
Качество видео: DVDRip
Контейнер: AVI
Видео кодек: XviD
Аудио кодек: AC3
Видео: 704x544 (1.29:1), 25 fps, XviD build 46 ~1948 kbps avg, 0.20 bit/pixel
Аудио: 48 kHz, AC3 Dolby Digital, 2/0 (L,R) ch, ~192 kbps
Cубтитры: отсутствуют

Media Info

Общее
Полное имя : F:\Виртуальное оружие\Virtualjnoe oruzie.1997.DVDRip.[pirat.ca].avi
Формат : AVI
Формат/Информация : Audio Video Interleave
Размер файла : 1,35 Гбайт
Продолжительность : 1 ч. 29 м.
Общий поток : 2150 Кбит/сек
Программа кодирования : VirtualDubMod 1.5.10.3 (build 2550/release)
Библиотека кодирования : VirtualDubMod build 2550/releaseВидео
Идентификатор : 0
Формат : MPEG-4 Visual
Профиль формата : [email protected]/* */
Параметр BVOP формата : Нет
Параметр QPel формата : Нет
Параметр GMC формата : Без точки перехода
Параметр матрицы формата : Default (H.263)
Идентификатор кодека : XVID
Идентификатор кодека/Подсказка : XviD
Продолжительность : 1 ч. 29 м.
Битрейт : 1948 Кбит/сек
Ширина : 704 пикселя
Высота : 544 пикселя
Соотношение сторон : 1,294
Частота кадров : 25,000 кадров/сек
Цветовое пространство : YUV
Субдискретизация насыщенности : 4:2:0
Битовая глубина : 8 бит
Тип развёртки : Прогрессивная
Метод сжатия : С потерями
Бит/(Пиксели*Кадры) : 0.204
Размер потока : 1,22 Гбайт (91%)
Библиотека кодирования : XviD 1.1.2 (UTC 2006-11-01)Аудио
Идентификатор : 1
Формат : AC-3
Формат/Информация : Audio Coding 3
Расширение режима : CM (complete main)
Параметр Endianness формата : Big
Идентификатор кодека : 2000
Продолжительность : 1 ч. 29 м.
Вид битрейта : Постоянный
Битрейт : 192 Кбит/сек
Каналы : 2 канала
Расположение каналов : Front: L R
Частота : 48,0 КГц
Частота кадров : 31,250 кадров/сек (1536 spf)
Метод сжатия : С потерями
Размер потока : 123 Мбайт (9%)
Выравнивание : Разделение по промежуткам
Продолжительность промежутка : 40 мс. (1,00 видеокадр)
Время предзагрузки промежутка : 500 мс.

Скриншот c названием фильма

Скриншоты

Трейлер

Яндекс.Метрика
Рейтинг@Mail.ru