Новый уровень / Level Up (Адам Рэндолл / Adam Randall) [2016 г., Триллер, WEB-DLRip] VO + Original (Eng)

 

Создавать темы 11-Сен-2016 02:49

-Новый уровень / Level Up-- Производство: Великобритания
Год выпуска: 2016 г.
Жанр: Триллер
Продолжительность: 01:24:49Мировая премьера: 26 августа 2016
Перевод: Любительский (одноголосый, закадровый)
Оригинальный аудиопоток: английский-Режиссер: Адам Рэндолл / Adam Randall-В ролях: Джошуа Боуман, Нил Мэскелл, Уильям Хьюстон, Кулвиндер Гир, Док Браун, Лейла Миммек, Кристина Вульф, Пол Рейнолдс, Камерон Джек, Джонатан Аркрайт-Описание: Мэтт и Анна молодая пара, живущая в Лондоне. Анна начинает свою карьеру и знает, что она хочет, в то время как Мэтт все еще пытается найти свою цель в жизни. На поверхности они счастливы, но напряжение начинает нарастать. Однажды молодчики в масках утром врываются в квартиру и похищают Анну, а Мэтта запирают в таинственный жилет и оставляют мобильный телефон. Мэтт, следуя инструкциям выдаваемым ему через мобильный телефон, должен доставить жилет некому Дмитрию. Если он потерпит неудачу, попытается обратиться за помощью или отклоняется от инструкций, они убьют Анну. В течение одного дня Мэтт должен проделать путь через весь Лондон в отчаянной попытке спасти свою подругу, в то время как ему будут мешать это сделать.- -Качество видео: WEB-DLRip
Контейнер: AVI
Видео кодек: XviD
Аудио кодек: MP3
Видео: 720x304, 23,976 fps, 2048 kbps avg, 0.39 bit/pixel
Аудио #1: Rus, 48 kHz, 2 ch, ~192 kbps
Аудио #2: Eng, 48 kHz, 2 ch, ~192 kbps
Cубтитры: отсутствуют-

Media Info

Общее
Полное имя : C:\Users\Roman\Pictures\Новый уровень\Level.Up.2016.WEB-DLRip.[pirat.ca].avi
Формат : AVI
Формат/Информация : Audio Video Interleave
Профиль формата : OpenDML
Размер файла : 1,45 Гбайт
Продолжительность : 1 ч. 24 м.
Общий поток : 2455 Кбит/сек
Название фильма : Level.Up.2016.WEBRip.XviD.MP3-FGT
Программа кодирования : XviD4PSP 6.0 / 54.29.105
Примечание : Level.Up.2016.WEBRip.XviD.MP3-FGTВидео
Идентификатор : 0
Формат : xvid
Идентификатор кодека : xvid
Продолжительность : 1 ч. 24 м.
Битрейт : 2048 Кбит/сек
Ширина : 720 пикселей
Высота : 304 пикселя
Соотношение сторон : 2,40:1
Частота кадров : 23,976 кадра/сек
Бит/(Пиксели*Кадры) : 0.390
Размер потока : 1,21 Гбайт (83%)Аудио #1
Идентификатор : 1
Формат : MPEG Audio
Версия формата : Version 1
Профиль формата : Layer 3
Идентификатор кодека : 55
Идентификатор кодека/Подсказка : MP3
Продолжительность : 1 ч. 24 м.
Вид битрейта : Постоянный
Битрейт : 192 Кбит/сек
Каналы : 2 канала
Частота : 44,1 КГц
Метод сжатия : С потерями
Размер потока : 116 Мбайт (8%)
Выравнивание : Соединение по промежуткам
Продолжительность промежутка : 26 мс. (0,63 видеокадр)Аудио #2
Идентификатор : 2
Формат : MPEG Audio
Версия формата : Version 1
Профиль формата : Layer 3
Режим : Joint stereo
Идентификатор кодека : 55
Идентификатор кодека/Подсказка : MP3
Продолжительность : 1 ч. 24 м.
Вид битрейта : Постоянный
Битрейт : 192 Кбит/сек
Каналы : 2 канала
Частота : 48,0 КГц
Метод сжатия : С потерями
Размер потока : 116 Мбайт (8%)
Выравнивание : Соединение по промежуткам
Продолжительность промежутка : 24 мс. (0,58 видеокадр)
Библиотека кодирования : LAME
-

Скриншоты

-
Яндекс.Метрика
Рейтинг@Mail.ru