[ Сегодня на трекере фрилич! Идет свободное скачивание без начисления Download ]

Варкрафт / Warcraft (Дункан Джонс / Duncan Jones) [2016, Боевик, Приключения, Фэнтези, BDRip] DUB (iTunes)

 

Создавать темы 10-Сен-2016 13:05

Варкрафт / Warcraft-- -Производство: США, Китай, Канада, Япония / Atlas Entertainment, Universal Pictures, Legendary Pictures
Жанр: Боевик, Приключения, Фэнтези
Режиссер: Дункан Джонс
Продюсер: Стюарт Фенеган, Алекс Гартнер, Джон Дж. Джашни
Актеры: Трэвис Фиммел, Пола Пэттон, Бен Фостер, Доминик Купер, Тоби Кеббелл, Бен Шнетцер, Роберт Казински, Клэнси Браун, Дэниэл Ву, Рут Негга
Описание:
Веками магия и неприступные стены защищали людей от любых напастей. Но древнее зло, побежденное и забытое тысячелетия назад, пробудилось.
В самом сердце королевства открылся темный портал, и раса невиданных существ наводнила земли Азерота. Так начались события, призванные навсегда изменить судьбу этого мира.

-Возраст: 12+ (зрителям, достигшим 12 лет)
Рейтинг MPAA: PG-13 (детям до 13 лет просмотр нежелателен)
Дата мировой премьеры: 24 мая 2016
Дата российской премьеры: 26 мая 2016, «UPI» 3D-Продолжительность: 02:03:07
Качество видео: BDRip
Перевод: Дублированный
Озвучка / Автор перевода: iTunes
Вид субтитров: Отсутствуют--Видео: AVC/H.264, 1920x792, ~6526 Kbps, 23,976 fps
Аудио: AC3, 6 ch, 448kbps - Русский, CBR-

МИ

General
Unique ID : 210359336842772271829595837503353715479 (0x9E41BC0E22BD0CEF8D829DCFB974FB17)
Complete name : E:\Video\WARCRAFT_REMUX_HDCLUB\Warcraft.mkv
Format : Matroska
Format version : Version 2
File size : 5.97 GiB
Duration : 2h 3mn
Overall bit rate : 6 946 Kbps
Movie name : WARCRAFT_REMUX_HDCLUB.Title0
Encoded date : UTC 2016-09-11 08:57:59
Writing application : DVDFab 9.2.4.4
Writing library : libebml v0.7.8 + libmatroska v0.8.1
Video
ID : 1
Format : AVC
Format/Info : Advanced Video Codec
Format profile : [email protected]
Format settings, CABAC : Yes
Format settings, ReFrames : 2 frames
Codec ID : V_MPEG4/ISO/AVC
Duration : 2h 3mn
Bit rate : 6 526 Kbps
Width : 1 920 pixels
Height : 792 pixels
Display aspect ratio : 2.40:1
Frame rate mode : Constant
Frame rate : 23.976 fps
Color space : YUV
Chroma subsampling : 4:2:0
Bit depth : 8 bits
Scan type : Progressive
Bits/(Pixel*Frame) : 0.179
Stream size : 5.47 GiB (92%)
Writing library : x264 core 142
Encoding settings : cabac=1 / ref=1 / deblock=1:-1:-1 / analyse=0x3:0 / me=hex / subme=5 / psy=0 / mixed_ref=0 / me_range=16 / chroma_me=1 / trellis=0 / 8x8dct=1 / cqm=0 / deadzone=21,11 / fast_pskip=0 / chroma_qp_offset=0 / threads=8 / lookahead_threads=2 / sliced_threads=0 / nr=0 / decimate=1 / interlaced=0 / bluray_compat=0 / constrained_intra=0 / bframes=2 / b_pyramid=0 / b_adapt=1 / b_bias=0 / direct=1 / weightb=0 / open_gop=0 / weightp=0 / keyint=24 / keyint_min=13 / scenecut=40 / intra_refresh=0 / rc=abr / mbtree=0 / bitrate=6526 / ratetol=1.0 / qcomp=0.60 / qpmin=0 / qpmax=69 / qpstep=4 / ip_ratio=1.40 / pb_ratio=1.30 / aq=1:1.00
Default : Yes
Forced : No
Color range : Limited
Color primaries : BT.709
Transfer characteristics : BT.709
Matrix coefficients : BT.709
Audio
ID : 2
Format : AC-3
Format/Info : Audio Coding 3
Mode extension : CM (complete main)
Format settings, Endianness : Big
Codec ID : A_AC3
Duration : 2h 3mn
Bit rate mode : Constant
Bit rate : 448 Kbps
Channel(s) : 6 channels
Channel positions : Front: L C R, Side: L R, LFE
Sampling rate : 48.0 KHz
Compression mode : Lossy
Stream size : 395 MiB (6%)
Language : Russian
Default : Yes
Forced : No
-Скриншоты:
--
Яндекс.Метрика
Рейтинг@Mail.ru