Тереза / Teresa (Дино Ризи / Dino Risi) [1987 г., комедия, DVDRip-AVC] DVO

 

Создавать темы 09-Сен-2016 03:58

-Тереза / Teresa-- Производство: Италия, Dean Film, Reteitalia
Год выпуска: 1987 г.
Жанр: комедия
Продолжительность: 01:37:17Мировая премьера: 26 ноября 1987
Перевод: Профессиональный (двухголосый, закадровый)
Режиссер: Дино Ризи / Dino Risi-В ролях: Серена Гранди / Serena Grandi ... Тереза Роки / Teresa Rocchi, Лука Барбарески / Luca Barbareschi ... Джино / Gino, Эрос Паньи / Eros Pagni ... Набукко Рагнотти / Nabucco Ragnotti, Флора Кароселло / Flora Carosello ... мать Терезы / Sepolcra - mother of Teresa, Роберт Спэффорд / Robert Spafford ... Бобби Родс / Bobby Rhodes ... Германн-шофёр / Hermann - the chaffeur, Фернандо Паннулло / Fernando Pannullo ...
Пупо Де Люка / Pupo De Luca ... Prior, Массимо Питтарелло / Massimo Pittarello ... Водитель грузовика / Camionista, Андреа Монтуши / Andrea Montuschi ... Джанкарло Коста / Giancarlo Costa ...
Умберто Комте / Umberto Comte ...
Луиджи Тондинелли / Luigi Tondinelli ...
Пако Реконти / Paco Reconti ...
Бьянка Нуволони / Bianca Nuvoloni …-Описание: У молодой красавицы-вдовы Терезы Рокки нет недостатка в кавалерах и в предложениях руки. Но гордая Тереза предпочитает остаться независимой и, организовав маленькую фирму по грузовым перевозкам, нанимает к себе водителем недавнего знакомого Джино. За рулем грузовика и с таким напарником как Джино Терезу ждут забавные и смешные ситуаций, а, возможно, и новая любовь.-
Качество видео: DVDRip-AVC
Контейнер: MKV
Видео кодек: MPEG4 AVC
Аудио кодек: AC3
Видео: AVC (H264), [email protected]/* */ (1.66:1), 25 fps, 1780 Kbps, 0.187 Bits/Pixel
Аудио: AC3, 44,1 KHz, stereo (2ch), 192 Kbps
Cубтитры: отсутствуют

Media Info

Общее
Уникальный идентификатор : 206912675578990677918948943157347510298 (0x9BA9EE88F16F6630ABCEB2E54974681A)
Полное имя : E:\Тереза\Teresa.1987.DVDRip-AVC.[pirat.ca].mkv
Формат : Matroska
Версия формата : Version 2
Размер файла : 1,34 Гбайт
Продолжительность : 1 ч. 37 м.
Общий поток : 1973 Кбит/сек
Дата кодирования : UTC 2016-09-07 20:15:03
Программа кодирования : mkvmerge v5.3.0 ('I could have danced') built on Feb 9 2012 10:38:07
Библиотека кодирования : libebml v1.2.3 + libmatroska v1.3.0Видео
Идентификатор : 1
Формат : AVC
Формат/Информация : Advanced Video Codec
Профиль формата : [email protected]/* */
Параметр CABAC формата : Да
Параметр ReFrames формата : 16 кадров
Идентификатор кодека : V_MPEG4/ISO/AVC
Продолжительность : 1 ч. 37 м.
Битрейт : 1780 Кбит/сек
Ширина : 672 пикселя
Высота : 568 пикселей
Соотношение сторон : 5:3
Соотношение сторон в оригинале : 1,183
Режим частоты кадров : Постоянный
Частота кадров : 25,000 кадров/сек
Цветовое пространство : YUV
Субдискретизация насыщенности : 4:2:0
Битовая глубина : 8 бит
Тип развёртки : Прогрессивная
Бит/(Пиксели*Кадры) : 0.187
Размер потока : 1,18 Гбайт (88%)
Библиотека кодирования : x264 core 146 r2538 121396c
Настройки программы : cabac=1 / ref=16 / deblock=1:0:0 / analyse=0x3:0x133 / me=umh / subme=10 / psy=1 / psy_rd=1.00:0.00 / mixed_ref=1 / me_range=24 / chroma_me=1 / trellis=2 / 8x8dct=1 / cqm=0 / deadzone=21,11 / fast_pskip=1 / chroma_qp_offset=-2 / threads=42 / lookahead_threads=4 / sliced_threads=0 / nr=0 / decimate=1 / interlaced=0 / bluray_compat=0 / constrained_intra=0 / bframes=8 / b_pyramid=2 / b_adapt=2 / b_bias=0 / direct=3 / weightb=1 / open_gop=0 / weightp=2 / keyint=250 / keyint_min=25 / scenecut=40 / intra_refresh=0 / rc_lookahead=60 / rc=2pass / mbtree=1 / bitrate=1780 / ratetol=1.0 / qcomp=0.60 / qpmin=0 / qpmax=69 / qpstep=4 / cplxblur=20.0 / qblur=0.5 / ip_ratio=1.40 / aq=1:1.00
Язык : Italian
Default : Да
Forced : Нет
Statistics Tags Issue : mkvmerge v9.4.0 ('Knurl') 64bit 2016-09-05 15:56:34 / mkvmerge v5.3.0 ('I could have danced') built on Feb 9 2012 10:38:07 2016-09-07 20:15:03
FromStats_BitRate : 1779683
FromStats_Duration : 01:37:17.960000000
FromStats_FrameCount : 145950
FromStats_StreamSize : 1298715395Аудио
Идентификатор : 2
Формат : AC-3
Формат/Информация : Audio Coding 3
Расширение режима : CM (complete main)
Параметр Endianness формата : Big
Идентификатор кодека : A_AC3
Продолжительность : 1 ч. 37 м.
Вид битрейта : Постоянный
Битрейт : 192 Кбит/сек
Каналы : 2 канала
Расположение каналов : Front: L R
Частота : 44,1 КГц
Частота кадров : 28,711 кадров/сек (1536 spf)
Метод сжатия : С потерями
Размер потока : 134 Мбайт (10%)
Язык : Russian
Default : Да
Forced : Нет
Statistics Tags Issue : mkvmerge v9.4.0 ('Knurl') 64bit 2016-09-05 15:56:34 / mkvmerge v5.3.0 ('I could have danced') built on Feb 9 2012 10:38:07 2016-09-07 20:15:03
FromStats_BitRate : 191999
FromStats_Duration : 01:37:16.696000000
FromStats_FrameCount : 167577
FromStats_StreamSize : 140080692

Скриншот c названием фильма

Скриншоты

Трейлер

Яндекс.Метрика
Рейтинг@Mail.ru