[ Сегодня на трекере фрилич! Идет свободное скачивание без начисления Download ]

Однажды ночью / The Night Of / Сезон: 1 / Серии: 8 из 8 (Стивен Зеллиан / Steven Zaillian, ...) [2016 г., драма, криминал, HDTVRip] MVO (Jaskier) + Original (Eng)

 

Создавать темы 09-Сен-2016 03:44

-Однажды ночью / The Night Of-- Производство: США, BBC Drama Productions, BBC Worldwide Productions, Film Rites, Home Box Office (HBO)
Жанр: драма, криминал
Год выпуска: 2016 г.
Продолжительность: 00:43:00Мировая премьера: 24 июня 2016
Российская премьера: 11 июля 2016
Перевод: Профессиональный (многоголосый, закадровый) [Jaskier]
Оригинальный аудиопоток: английскийРежиссер: Стивен Зеллиан / Steven Zaillian, ...-В ролях: Пурна Джаганнатхан, Сиам М. Лафи, Джон Туртурро, Дэвид Чен, Амара Каран, Реджинальд Барнс, Крис Брайант, Ксавьер Кадо, Лорд Джамар, Кристофер Жиро, Риз Ахмед и др.-Описание: После бурной ночи с незнакомкой парень просыпается с её трупом у себя под боком, и все обвинения падают на него.-
Качество видео: HDTVRip
Контейнер: AVI
Видео кодек: XviD
Аудио кодек: MP3
Видео: 720x400 (1.80:1), 23.976 fps, XviD build 73 ~1428 kbps avg, 0.21 bit/pixel Audio
Аудио: 48 kHz, MPEG Layer 3, 2 ch, ~128.00 kbps avg
Аудио #2: 48 kHz, MPEG Layer 3, 2 ch, ~128.00 kbps avgCубтитры: отсутствуют

Рецензия

«Остановись, мгновенье! Ты прекрасно!»Этот сериал обязателен к просмотру для каждого. По праву должен быть признан лучшим сериалом 2016 года. Каждая серия — это отдельная история, которая завораживает и не отпускает тебя до следующей серии. Великолепная игра актеров, гениальная работа операторов и режиссеров.The Night of как «Лунная соната» — киномузыка, которая поглощает тебя всецело и заставляет на только смотреть, но и ощущать себя в ней — ты в тюрьме и наблюдаешь за жизнью заключенных, ты в суде и следишь за процессом, ты в дешевой китайской забегаловке сидишь рядом со следователем, ты в доме адвоката и сочувственно наблюдаешь как он борется с экземой… Этот интеллектуальный мини-сериал сумел задать много важных и сложных вопросов, ответы на которые каждый найдет сам.10 из 10

Media Info

Общее
Полное имя : J:\Однажды ночью\The Night Of.S01.2016.Jaskier.[pirat.ca]\The.Night.Of.s01e01.HDTVRip.Jaskier.avi
Формат : AVI
Формат/Информация : Audio Video Interleave
Размер файла : 955 Мбайт
Продолжительность : 1 ч. 18 м.
Общий поток : 1700 Кбит/сек
Название фильма : The.Night.Of.s01e01.HDTVRip.Jaskier
Программа кодирования : VirtualDubMod 1.5.10.3 | www.virtualdub-fr.org || (build 2550/release)Видео
Идентификатор : 0
Формат : MPEG-4 Visual
Профиль формата : Advanced [email protected]/* */
Параметр BVOP формата : 1
Параметр QPel формата : Нет
Параметр GMC формата : Без точки перехода
Параметр матрицы формата : Default (MPEG)
Идентификатор кодека : XVID
Идентификатор кодека/Подсказка : XviD
Продолжительность : 1 ч. 18 м.
Битрейт : 1430 Кбит/сек
Ширина : 720 пикселей
Высота : 400 пикселей
Соотношение сторон : 16:9
Частота кадров : 23,976 (23976/1000) кадра/сек
Цветовое пространство : YUV
Субдискретизация насыщенности : 4:2:0
Битовая глубина : 8 бит
Тип развёртки : Прогрессивная
Метод сжатия : С потерями
Бит/(Пиксели*Кадры) : 0.207
Размер потока : 804 Мбайт (84%)
Библиотека кодирования : XviD 73Аудио #1
Идентификатор : 1
Формат : MPEG Audio
Версия формата : Version 1
Профиль формата : Layer 3
Режим : Joint stereo
Расширение режима : MS Stereo
Идентификатор кодека : 55
Идентификатор кодека/Подсказка : MP3
Продолжительность : 1 ч. 18 м.
Вид битрейта : Постоянный
Битрейт : 128 Кбит/сек
Каналы : 2 канала
Частота : 48,0 КГц
Метод сжатия : С потерями
Размер потока : 72,0 Мбайт (8%)
Выравнивание : Соединение по промежуткам
Продолжительность промежутка : 42 мс. (1,00 видеокадр)
Время предзагрузки промежутка : 504 мс.Аудио #2
Идентификатор : 2
Формат : MPEG Audio
Версия формата : Version 1
Профиль формата : Layer 3
Режим : Joint stereo
Расширение режима : MS Stereo
Идентификатор кодека : 55
Идентификатор кодека/Подсказка : MP3
Продолжительность : 1 ч. 18 м.
Вид битрейта : Постоянный
Битрейт : 128 Кбит/сек
Каналы : 2 канала
Частота : 48,0 КГц
Метод сжатия : С потерями
Размер потока : 72,0 Мбайт (8%)
Выравнивание : Соединение по промежуткам
Продолжительность промежутка : 42 мс. (1,00 видеокадр)
Время предзагрузки промежутка : 504 мс.

Скриншот c названием фильма

Скриншоты

Трейлер

Яндекс.Метрика
Рейтинг@Mail.ru