Башня перворожденного (ТВ) / I guardiani del cielo / Tower Of The Firstborn (Альберто Негрин / Alberto Negrin) [1998 г., приключения, DVDRip] MVO

 

Создавать темы 09-Сен-2016 03:40

-Башня перворожденного (ТВ) / I guardiani del cielo / Tower Of The Firstborn-- Производство: Италия, Франция
Год выпуска: 1998 г.
Жанр: приключения
Продолжительность: 03:04:32Мировая премьера: 1 октября 2000
Перевод: Профессиональный (многоголосый, закадровый)
Режиссер: Альберто Негрин / Alberto Negrin-В ролях: Питер Уэллер, Бен Кросс, Марко Бонини, Гай Ланкестер, Бернар-Пьер Доннаде, Ромина Монделло, Хейно Ферч-Описание: Знаменитый искатель приключений, неутомимый Джон Шэннон много лет ищет на бескрайних просторах Африки легендарную Башню Перворожденного, таящую в себе не только несметные богатства, но и священные знания о древней цивилизации-прародительницы человечества.
Отважный ученый постоянно рискует не только своей репутацией, но и жизнью, поэтому узнав о внезапном исчезновении отца, дочь Шэннона Дайан понимает, что найдет его, только если сама отправится на поиски мифической Башни. Дайан знает, что в этом опасном путешествии нельзя доверять никому, ведь жаркие пустыни и сказочные оазисы «черного континента» кишат кровожадными охотниками за сокровищами, самый опасный из которых — коварный брат ее отца, зловещий Майкл Шэннон…-
Качество видео: DVDRip
Контейнер: AVI
Видео кодек: XviD
Аудио кодек: MP3
Видео: 688x496 (1.39:1), 25 fps, XviD build 50 ~767 kbps avg, 0.09 bit/pixel
Аудио: 44.100 kHz, MPEG Layer 3, 2 ch, ~123.31 kbps avg
Cубтитры: отсутствуют

Media Info

Общее
Полное имя : E:\BaSHnja Pervorojzdennogo.E01-02.1998.DVDRip.[pirat.ca]\Башня перворожденного (1 серия из 2) - Tower Of The Firstborn.avi
Формат : AVI
Формат/Информация : Audio Video Interleave
Размер файла : 601 Мбайт
Продолжительность : 1 ч. 32 м.
Режим общего битрейта : Переменный
Общий поток : 904 Кбит/сек
Название фильма : Башня перворожденного (1 серия из 2) - Tower Of The Firstborn
Программа кодирования : MEncoder Sherpya-SVN-r30075-4.2.5Видео
Идентификатор : 0
Формат : MPEG-4 Visual
Профиль формата : [email protected]/* */
Параметр BVOP формата : Нет
Параметр QPel формата : Нет
Параметр GMC формата : Без точки перехода
Параметр матрицы формата : Default (H.263)
Идентификатор кодека : XVID
Идентификатор кодека/Подсказка : XviD
Продолжительность : 1 ч. 32 м.
Битрейт : 768 Кбит/сек
Ширина : 688 пикселей
Высота : 496 пикселей
Соотношение сторон : 1,387
Частота кадров : 25,000 кадров/сек
Цветовое пространство : YUV
Субдискретизация насыщенности : 4:2:0
Битовая глубина : 8 бит
Тип развёртки : Прогрессивная
Метод сжатия : С потерями
Бит/(Пиксели*Кадры) : 0.090
Размер потока : 511 Мбайт (85%)
Библиотека кодирования : XviD 1.2.1 (UTC 2008-12-04)Аудио
Идентификатор : 1
Формат : MPEG Audio
Версия формата : Version 1
Профиль формата : Layer 3
Режим : Joint stereo
Расширение режима : MS Stereo
Идентификатор кодека : 55
Идентификатор кодека/Подсказка : MP3
Продолжительность : 1 ч. 32 м.
Вид битрейта : Переменный
Битрейт : 123 Кбит/сек
Каналы : 2 канала
Частота : 44,1 КГц
Метод сжатия : С потерями
Размер потока : 82,0 Мбайт (14%)
Выравнивание : Соединение по промежуткам
Продолжительность промежутка : 26 мс. (0,65 видеокадр)
Время предзагрузки промежутка : 134 мс.
Библиотека кодирования : LAME3.98.2

Скриншот c названием фильма

Скриншоты

Трейлер

Яндекс.Метрика
Рейтинг@Mail.ru