Квайдан: Повествование о загадочном и ужасном / Kwaidan / Kaidan (Масаки Кобаяси / Masaki Kobayashi) [1964 г., ужасы, фэнтези, HDRip] DVO [SomeWax] + Sub (Rus)

 

Создавать темы 09-Сен-2016 03:35

-Квайдан: Повествование о загадочном и ужасном / Kwaidan / Kaidan-- Производство: Япония
Год выпуска: 1964 г.
Жанр: ужасы, фэнтези
Продолжительность: 03:03:16Мировая премьера: 29 декабря 1964
Перевод: Профессиональный (двухголосый, закадровый) [SomeWax]
Режиссер: Масаки Кобаяси / Masaki Kobayashi-В ролях: Мичийо Аратама, Мисако Ватанабе, Рэнтаро Микуни, Кэндзиро Ишияма, Ранко Акаги, Фумие Китахара, Каппей Мацумото, Ёсико Иэда, Отомэ Цукимия, Кензо Танака, Киёси Накано, Татсуйа Накадаи, Кейко Киши, Юко Мотидзуки, Кин Сугаи, Норико Сэнгоку, Акико Номура, Торахико Хамада, Дзюн Хамамура, Катсуо Накамура, Тэцуро Тамба, Такаси Симура, Ёити Хаяси, Эйко Мурамацу, Куниэ Танака, Кадзуо Китамура, Икиро Накая-Описание: Совершенно потрясающий в изобразительном плане, завораживающий мистически-философский фильм состоит из четырех новелл: «Черные волосы», «Снежная женщина», «Сказание о Хойчи безухом», «В чашке чая».
Нет смысла рассказывать содержание — жизнь и смерть, любовь и предательство, поступки и расплата — эти вечные темы решены с тончайшим вкусом. И хотя в картине пристутствуют люди живые и духи, вернувшиеся по разным причинам из царства мертвых, к жанру ужасов или мистики отнести ее можно лишь условно.-
Качество видео: HDRip
Контейнер: AVI
Видео кодек: XviD
Аудио кодек: AC3
Cубтитры: русские
Формат субтитров: softsub (SRT)
Доп. информация о субтитрах: внешние
Видео: 720x304 (2.37:1), 23.976 fps, XviD build 47 ~1507 kbps avg, 0.29 bit/pixel
Аудио: 48 kHz, AC3 Dolby Digital, 2/0 (L,R) ch, ~192 kbps
Cубтитры: отсутствуют

Доп. информация

Полная версия фильма имеет хронометраж 183 минуты.

Награды

Премия «Кинема дзюнпо» за сценарий (Ёко Мидзуки — также за сценарий к фильму «Милое волнение» / Амаи асэ).
Оскар, 1966 год
Номинации (1):
Лучший фильм на иностранном языке — «Япония»
Каннский кинофестиваль, 1965 год
Победитель (1):
Особый приз жюри
Номинации (1):
Золотая пальмовая ветвь

Рецензия

Визуальная живописьЧетыре истории, четыре короткометражных фильма. Если бы человек, ничего не знающий о Японии, попросил бы меня познакомить его с японским кинематографом, то я бы показал ему фильм Кобаяси «Квайдан». Главные эффекты — это атмосфера фильма, экспрессия образов и его визуальная гамма.«Квайдан» — это совсем не ужастик, а философские причти о жизни с постоянным ощущением мистического присутствия потустороннего мира в жизни людей.Каждую историю можно смотреть отдельно, и повествование Кобаяси просто завораживает. Поразительно, как показано сражение на водах озера в притче «Безухий Хоити» — монтонное для европейского уха пение эпоса о битве и монтаж средневековых гравюр — но оторваться просто невозможно, и затем, когда мы видим батальные эпизоды, снятые в студии — возникает практически 3 D эффект от увиденного, хочется сказать: «Верю».Из-за визуальной насыщенности возникают ассоциации с фильмами Копполы, Куросавы, Параджанова, но здесь визуальная насыщенность возникает не из-за массовых сцен, ярких костюмов и декораций и т. п. внешних эффектов. Кобаяси очень экономичен в выборе средств, истории у него — личные, камерные по звучанию и исполнению, но режиссёр знал одну тайну — как эти экономичные средства использовать наиболее выразительно для зрителя.Гениальный фильм, наивысшая оценка.

Media Info

Общее
Полное имя : E:\Квайдан\Kwaidan.1964.HDRip.[pirat.ca]\Kwaidan.1964.HDRip.avi
Формат : AVI
Формат/Информация : Audio Video Interleave
Профиль формата : OpenDML
Размер файла : 2,18 Гбайт
Продолжительность : 3 ч. 3 м.
Общий поток : 1707 Кбит/сек
Название фильма : Kwaidan.1964.HDRip
Программа кодирования : VirtualDubMod 1.5.10.2 (build 2540/release)Видео
Идентификатор : 0
Формат : MPEG-4 Visual
Профиль формата : Advanced [email protected]/* */
Параметр BVOP формата : 1
Параметр QPel формата : Нет
Параметр GMC формата : Без точки перехода
Параметр матрицы формата : Выборочная
Идентификатор кодека : XVID
Идентификатор кодека/Подсказка : XviD
Продолжительность : 3 ч. 3 м.
Битрейт : 1503 Кбит/сек
Ширина : 720 пикселей
Высота : 304 пикселя
Соотношение сторон : 2,35:1
Частота кадров : 23,976 (23976/1000) кадра/сек
Цветовое пространство : YUV
Субдискретизация насыщенности : 4:2:0
Битовая глубина : 8 бит
Тип развёртки : Прогрессивная
Метод сжатия : С потерями
Бит/(Пиксели*Кадры) : 0.286
Размер потока : 1,92 Гбайт (88%)
Библиотека кодирования : XviD 1.2.0.dev47 (UTC 2006-11-01)Аудио
Идентификатор : 1
Формат : AC-3
Формат/Информация : Audio Coding 3
Расширение режима : CM (complete main)
Параметр Endianness формата : Big
Идентификатор кодека : 2000
Продолжительность : 3 ч. 3 м.
Вид битрейта : Постоянный
Битрейт : 192 Кбит/сек
Каналы : 2 канала
Расположение каналов : Front: L R
Частота : 48,0 КГц
Частота кадров : 31,250 кадров/сек (1536 spf)
Метод сжатия : С потерями
Размер потока : 252 Мбайт (11%)
Выравнивание : Разделение по промежуткам
Продолжительность промежутка : 42 мс. (1,00 видеокадр)
Время предзагрузки промежутка : 500 мс.

Скриншот c названием фильма

Скриншоты

Трейлер

Яндекс.Метрика
Рейтинг@Mail.ru