[ Сегодня на трекере фрилич! Идет свободное скачивание без начисления Download ]

Повелители снов (Ирина Багрова) [2016 г., комедия, фэнтези, WEB-DLRip] Original (Rus)

 

Создавать темы 09-Сен-2016 03:30

-Повелители снов-- Производство: Россия
Год выпуска: 2016 г.
Жанр: комедия, фэнтези
Продолжительность: 01:16:44Российская премьера: 18 августа 2016-Режиссер: Ирина Багрова-В ролях: Александр Балуев, Дмитрий Ендальцев, Анастасия Пронина, Дмитрий Соколов, Софья Лебедева, Валентина Оленева, Сергей Степанченко, Светлана Бельская, Михаил Водзуми, Илья Малаков-Описание: О них не пишут в газетах, но они существуют! Да-да! Специалисты «Корпорации снов» предложат сон на ваш вкус, а если надо, осуществят его передачу на расстоянии. Это ноу-хау перевернет мир, как телефон или интернет.
Но чем закончится безумный и опасный эксперимент?!- -Качество видео: WEB-DLRip
Контейнер: AVI
Видео кодек: XviD
Аудио кодек: AC3
Видео: 720x304 (2,35:1), 25 fps, XviD ~ 1768 kbps avg, 0.323 bit/pixel
Аудио: AC3, 48 kHz, 6 ch, ~384.00 kbps avg
Cубтитры: отсутствуют-

Media Info

Общее
Полное имя : C:\Users\Roman\Pictures\новинки\Poveliteli.Snov.2O16.O.WEB-DLRip.[pirat.ca].avi
Формат : AVI
Формат/Информация : Audio Video Interleave
Размер файла : 1,37 Гбайт
Продолжительность : 1 ч. 16 м.
Общий поток : 2550 Кбит/сек
Программа кодирования : VirtualDubMod 1.5.10.2 (build 2540/release)
Библиотека кодирования : VirtualDubMod build 2540/releaseВидео
Идентификатор : 0
Формат : MPEG-4 Visual
Профиль формата : Advanced [email protected]/* */
Параметр BVOP формата : 2
Параметр QPel формата : Нет
Параметр GMC формата : Без точки перехода
Параметр матрицы формата : Default (MPEG)
Идентификатор кодека : XVID
Идентификатор кодека/Подсказка : XviD
Продолжительность : 1 ч. 16 м.
Битрейт : 1768 Кбит/сек
Ширина : 720 пикселей
Высота : 304 пикселя
Соотношение сторон : 2,35:1
Частота кадров : 25,000 кадров/сек
Цветовое пространство : YUV
Субдискретизация насыщенности : 4:2:0
Битовая глубина : 8 бит
Тип развёртки : Прогрессивная
Метод сжатия : С потерями
Бит/(Пиксели*Кадры) : 0.323
Размер потока : 970 Мбайт (69%)
Библиотека кодирования : XviD 1.2.1 (UTC 2008-12-04)Аудио #1
Идентификатор : 1
Формат : AC-3
Формат/Информация : Audio Coding 3
Расширение режима : CM (complete main)
Параметр Endianness формата : Big
Идентификатор кодека : 2000
Продолжительность : 1 ч. 16 м.
Вид битрейта : Постоянный
Битрейт : 384 Кбит/сек
Каналы : 6 каналов
Расположение каналов : Front: L C R, Side: L R, LFE
Частота : 48,0 КГц
Битовая глубина : 16 бит
Метод сжатия : С потерями
Размер потока : 211 Мбайт (15%)
Выравнивание : Разделение по промежуткам
Продолжительность промежутка : 40 мс. (1,00 видеокадр)
Время предзагрузки промежутка : 500 мс.
-

Скриншот c названием фильма

-

Скриншоты

-
Яндекс.Метрика
Рейтинг@Mail.ru