Замечательная поездка (Бег во времени) / Grand Tour: Disaster In Time (Timescape) (Дэвид Туи / David Twohy) [1992 г., фантастика, триллер, DVDRip] VO

 

Создавать темы 09-Сен-2016 03:23

-Замечательная поездка (Бег во времени) / Grand Tour: Disaster In Time (Timescape)-- Производство: США, Channel Communications, Drury Lane Holdings, Wild Street Pictures, ...
Год выпуска: 1992 г.
Жанр: фантастика, триллер
Продолжительность: 01:38:50Мировая премьера: 9 мая 1992
Перевод: Любительский (одноголосый, закадровый)
Режиссер: Дэвид Туи / David Twohy-В ролях: Jeff Daniels (Бен Уилсон), Ariana Richards (Хилари), Jim Haynie (Оскар), George Murdock (судья Колдуэлл), David Wells (Квиш)-Описание: В небольшом городе Greenglen есть небольшой семейный отель. Его владелец Бен Уилсон недавно потерял жену и остался один с дочерью-подростком Хилари. Чтобы немного развеяться после смерти супруги, отец и дочь на некоторое время покидают город. После возвращения они приводят отель в порядок и начинают принимать постояльцев. Но постояльцы оказываются какими-то странными ребятами. Они ведут себя так, как будто приехали в настоящий центр развлечений, где должно совершиться что-то грандиозное, а не в маленький, лишенный особых достопримечательностей городок. Истина выясняется довольно скоро. Странные туристы оказываются путешественниками во времени и прибыли они сюда отнюдь не случайно…-
Качество видео: DVDRip
Контейнер: AVI
Видео кодек: XviD
Аудио кодек: MP3
Видео: 720x400 (1.80:1), 23.976 fps, XviD build 47 ~1849 kbps avg, 0.27 bit/pixel
Аудио: 44.100 kHz, MPEG Layer 3, 2 ch, ~192.00 kbps avg
Cубтитры: отсутствуют

Рецензия

Бен Уилсон (Джефф Дэниелс) владелец небольшой гостиницы в городке Гринглен. После трагической гибели жены, единственным важным человеком в его жизни остаётся дочь Хилари (Ариана Ричардс). Вместе они живут тихой, размеренной жизнью, пока к ним в гостиницу не заезжают очень странные постояльцы…Режиссёрский дебют Дэвида Туи не блещет визуальными эффектами, но навсегда остаётся в памяти. Ведь, вероятно, у каждого из нас хотя бы раз в жизни был день, который хотелось поменять и сделать всё по другому. Но решились бы вы на это, зная, что меняя всё — рискуете своей жизнью?Джефф Дэниелс шикарный актёр, органично смотрящийся и в комедиях, и в боевиках, и драмах. В Timescape он великолепен в образе отца, готового на всё ради своей семьи, готового для неё убежать из времени.Фанатам «бум-бах-бздыщ» картин конечно тут делать нечего, а вот любящим фантастические драмы данный фильм однозначно рекомендую.10 из 10

Media Info

Общее
Полное имя : J:\Бег во времени\Grand Tour Disaster In Time.Timescape.1992.DVDRip.[pirat.ca].avi
Формат : AVI
Формат/Информация : Audio Video Interleave
Размер файла : 1,42 Гбайт
Продолжительность : 1 ч. 38 м.
Общий поток : 2051 Кбит/сек
Программа кодирования : VirtualDubMod 1.5.10.3 (build 2550/release)
Библиотека кодирования : VirtualDubMod build 2550/releaseВидео
Идентификатор : 0
Формат : MPEG-4 Visual
Профиль формата : Advanced [email protected]/* */
Параметр BVOP формата : Нет
Параметр QPel формата : Нет
Параметр GMC формата : Без точки перехода
Параметр матрицы формата : Выборочная
Идентификатор кодека : XVID
Идентификатор кодека/Подсказка : XviD
Продолжительность : 1 ч. 38 м.
Битрейт : 1850 Кбит/сек
Ширина : 720 пикселей
Высота : 400 пикселей
Соотношение сторон : 16:9
Частота кадров : 23,976 (23976/1000) кадра/сек
Цветовое пространство : YUV
Субдискретизация насыщенности : 4:2:0
Битовая глубина : 8 бит
Тип развёртки : Прогрессивная
Метод сжатия : С потерями
Бит/(Пиксели*Кадры) : 0.268
Размер потока : 1,28 Гбайт (90%)
Библиотека кодирования : XviD 1.2.0.dev47 (UTC 2006-11-01)Аудио
Идентификатор : 1
Формат : MPEG Audio
Версия формата : Version 1
Профиль формата : Layer 3
Идентификатор кодека : 55
Идентификатор кодека/Подсказка : MP3
Продолжительность : 1 ч. 38 м.
Вид битрейта : Постоянный
Битрейт : 192 Кбит/сек
Каналы : 2 канала
Частота : 44,1 КГц
Метод сжатия : С потерями
Задержка видео : 11 мс.
Размер потока : 136 Мбайт (9%)
Выравнивание : Разделение по промежуткам
Продолжительность промежутка : 42 мс. (1,00 видеокадр)
Время предзагрузки промежутка : 500 мс.

Скриншот c названием фильма

Скриншоты

Трейлер

Яндекс.Метрика
Рейтинг@Mail.ru