Гольциус и Пеликанья компания / Goltzius and the Pelican Company (Питер Гринуэй/ Peter Greenaway) [Биография, Исторический,Эротика, 2013] (DVDRip)

 

Создавать темы 05-Янв-2014 09:02

Гольциус и Пеликанья компания / Goltzius and the Pelican Company- Год выпуска: 2013
Жанр: Биография, Исторический,Эротика
Производство: Великобритания, Нидерланды, Франция, Хорватия
Описание фильма:
Зимой 1590 года в Кольмаре голландский типограф и гравёр Хендрик Гольциус обращается к маркизу Эльзасскому с просьбой о выделении средств на создание типографии, которая будет издавать иллюстрированные книги. Гольциус считает, что первые две книги, которые выйдут из-под печатного станка, следует преподнести Маркизу и его свите. Этими книгами должны стать иллюстрированное издание Ветхого Завета, содержащее шесть историй с эротическим содержанием, и иллюстрированное издание Метаморфоз Овидия, содержащее историю измен Юпитера.
Чтобы ещё сильнее прельстить Маркиза, Гольциус и его типографские работники готовятся поставить перед свитой Маркиза серию спектаклей по этим эротическим рассказам. Маркиз, человек, известный широтой взглядов, гордящийся своей религиозной и культурной терпимостью, владелец большой библиотеки, с просвещённым интересом к книгам и новым технологиям печати, поддаётся искушению Гольциуса. В присутствии свидетелей Маркиз заявляет, что возместит производственные затраты Гольциуса и компании, при условии, что те будут держать его в состоянии распалённом и взволнованном.
Гольциус и его Пеликанья компания печатных мастеров с их жёнами и любовницами из театрального мира приступают к работе…

Режиссер: Питер Гринуэй
Актеры: Ф. Мюррэй Абрахам, Винсент Риотта, Халина Рейн, Ларс Эйдингер, Флавио Паренти, Анне Луизе Хассинг, Джулио Мария Беррути, Франческо Де Вито, Кейт Моран, Пиппо Дельбонно
Продолжительность: 02:02:58
Качество видео: DVDRip
Перевод: Многоголосый закадровый [лицензия]

Дата мировой премьеры: 30 сентября 2012
Дата российской премьеры: 12 сентября 2013
Дата выхода DVD релиза: 12 декабря 2013,
Видеокодек: Xvid
Битрейт видео: ~1987Kbps
Размер кадра: 720x400
Аудиокодек: AC3 5.1
Битрейт аудио: 384 Kbps

Медиаинфо

Формат : AVI
Формат/Информация : Audio Video Interleave
Профиль формата : OpenDML
Размер файла : 2,05 Гбайт
Продолжительность : 2 ч. 3 м.
Общий поток : 2383 Кбит/сек
Программа кодирования : VirtualDubMod 1.5.10.3 | www.virtualdub-fr.org || (build 2550/release)
Библиотека кодирования : VirtualDubMod build 2550/release
Видео
Идентификатор : 0
Формат : MPEG-4 Visual
Профиль формата : Advanced [email protected]
Параметр BVOP формата : 2
Параметр QPel формата : Нет
Параметр GMC формата : Без точки перехода
Параметр матрицы формата : Default (MPEG)
Идентификатор кодека : XVID
Идентификатор кодека/Подсказка : XviD
Продолжительность : 2 ч. 3 м.
Битрейт : 1987 Кбит/сек
Ширина : 720 пикселей
Высота : 400 пикселей
Соотношение сторон : 16:9
Частота кадров : 25,000 кадров/сек
Цветовое пространство : YUV
Субдискретизация насыщенности : 4:2:0
Битовая глубина : 8 бит
Тип развёртки : Прогрессивная
Метод сжатия : С потерями
Бит/(Пиксели*Кадры) : 0.276
Размер потока : 1,71 Гбайт (83%)
Библиотека кодирования : XviD 1.2.1 (UTC 2008-12-04)
Аудио
Идентификатор : 1
Формат : AC-3
Формат/Информация : Audio Coding 3
Расширение режима : CM (complete main)
Параметр Endianness формата : Big
Идентификатор кодека : 2000
Продолжительность : 2 ч. 3 м.
Вид битрейта : Постоянный
Битрейт : 384 Кбит/сек
Каналы : 6 каналов
Расположение каналов : Front: L C R, Side: L R, LFE
Частота : 48,0 КГц
Битовая глубина : 16 бит
Метод сжатия : С потерями
Размер потока : 338 Мбайт (16%)
Выравнивание : Разделение по промежуткам
Продолжительность промежутка : 40 мс. (1,00 видеокадр)
Время предзагрузки промежутка : 500 мс.
-Скриншоты:
Яндекс.Метрика
Рейтинг@Mail.ru