[ Сегодня на трекере фрилич! Идет свободное скачивание без начисления Download ]

Змеиный бог / Il dio serpente / The God Snake (Пьеро Виварелли / Piero Vivarelli) [1970 г., ужасы, приключения, DVDRip] VO

 

Создавать темы 08-Сен-2016 04:51

-Змеиный бог / Il dio serpente / The God Snake-- Производство: Италия, Венесуэла
Год выпуска: 1970 г.
Жанр: ужасы, приключения
Продолжительность: 01:34:50Мировая премьера: 28 ноября 1970
Перевод: Любительский (одноголосый, закадровый) [den904]
Режиссер: Пьеро Виварелли / Piero Vivarelli-В ролях: Надя Кассини, Берил Каннингэм, Серджо Трамонти, Галеаццо Бенти, Арнальдо Палашиос, Juana Sobreda, Клаудио Трионфи, Эваристо Маркес, Койке Махоко-Описание: Отдыхая с мужем на Карибских островах, итальянка Паола находит себе подругу — негритянку Стеллу, которая знакомит её с обычаями и верованиями местных жителей. Увлечённая рассказами о вуду и мифическом змеином боге Джамбалле, Паола начинает всё теснее вовлекаться в оккультные ритуалы, вскоре становясь их непосредственной участницей.-
Качество видео: DVDRip
Контейнер: AVI
Видео кодек: XviD
Аудио кодек: AC3
Видео: 688x288 (2.39:1), 23.976 fps, XviD build 67 ~1814 kbps avg, 0.38 bit/pixel
Аудио: 48 kHz, AC3 Dolby Digital, 2/0 (L,R) ch, ~192 kbps
Cубтитры: отсутствуют

Media Info

Общее
Полное имя : C:\герои 7\Змеиный бог\Il dio serpente.The God Snake.1970.DVDRip.[pirat.ca].avi
Формат : AVI
Формат/Информация : Audio Video Interleave
Размер файла : 1,34 Гбайт
Продолжительность : 1 ч. 34 м.
Общий поток : 2016 Кбит/сек
Программа кодирования : VirtualDubMod 1.5.10.3 (build 2550/release)
Библиотека кодирования : VirtualDubMod build 2550/releaseВидео
Идентификатор : 0
Формат : MPEG-4 Visual
Профиль формата : Advanced [email protected]/* */
Параметр BVOP формата : 1
Параметр QPel формата : Нет
Параметр GMC формата : Без точки перехода
Параметр матрицы формата : Default (MPEG)
Идентификатор кодека : XVID
Идентификатор кодека/Подсказка : XviD
Продолжительность : 1 ч. 34 м.
Битрейт : 1815 Кбит/сек
Ширина : 688 пикселей
Высота : 288 пикселей
Соотношение сторон : 2,40:1
Частота кадров : 23,976 (24000/1001) кадра/сек
Цветовое пространство : YUV
Субдискретизация насыщенности : 4:2:0
Битовая глубина : 8 бит
Тип развёртки : Прогрессивная
Метод сжатия : С потерями
Бит/(Пиксели*Кадры) : 0.382
Размер потока : 1,20 Гбайт (90%)
Библиотека кодирования : XviD 67Аудио
Идентификатор : 1
Формат : AC-3
Формат/Информация : Audio Coding 3
Расширение режима : CM (complete main)
Параметр Endianness формата : Big
Идентификатор кодека : 2000
Продолжительность : 1 ч. 34 м.
Вид битрейта : Постоянный
Битрейт : 192 Кбит/сек
Каналы : 2 канала
Расположение каналов : Front: L R
Частота : 48,0 КГц
Частота кадров : 31,250 кадров/сек (1536 spf)
Метод сжатия : С потерями
Размер потока : 130 Мбайт (10%)
Выравнивание : Разделение по промежуткам
Продолжительность промежутка : 42 мс. (1,00 видеокадр)
Время предзагрузки промежутка : 500 мс.

Скриншот c названием фильма

Скриншоты

Трейлер

Яндекс.Метрика
Рейтинг@Mail.ru