[ Сегодня на трекере фрилич! Идет свободное скачивание без начисления Download ]

Аминь / Nude Nuns with Big Guns (Джозеф Гусман / Joseph Guzman) [2010 г., боевик, триллер, комедия, 18+, DVDRip] DVO

 

Создавать темы 08-Сен-2016 04:45

-Аминь / Nude Nuns with Big Guns-- Производство: США
Год выпуска: 2010 г.
Жанр: боевик, триллер, комедия, 18+
Продолжительность: 01:28:03Мировая премьера: 24 сентября 2010
Перевод: Профессиональный (двухголосый, закадровый)
Режиссер: Джозеф Гусман / Joseph Guzman-В ролях: Асун Ортега, Тони Эмбер Янг, Билл Оберст мл., Джессика Чорткофф, Моника Рамон, Саша Стубер, Макси Дж. Сантиллэн мл.-Описание: Укрываясь за монастырской стеной от опасностей внешнего мира, сестра Сара не ожидала, что попадет прямо в лапы преступников в рясах: под прикрытием священного креста действовал законспирированный наркокартель. Контролируемые настоятелям «тихой обители» послушницы расфасовывали кокаин, а церковный автобус развозил товар по крупным дилерам.
Однажды во время доставки товара в автобусе обнаружилась недостача… Подозреваемых в воровстве было лишь трое: двоих монашек бандиты застрелили на месте, а Сару наркобарон забрал с собой. Недолго думая, он накачал ее наркотиками и сдал в бордель. Едва не умерев от передозировки, избитая и изнасилованная Сара очнулась в какой-то лачуге и услышала глас божий, призывавший ее отомстить обидчикам…
Исполняя Божью волю, сестра Сара собрала целый арсенал оружия и объявила войну своим мучителям, истребляя их одного за другим. Церковная наркомафия и связанная с ней банда «Los Muertos» поклялись оторвать голову непокорной монахине. Но с именем Господа на устах и с крупнокалиберным пистолетам в руке она сама устроит им внеочередной Судный день!-
Качество видео: DVDRip
Контейнер: AVI
Видео кодек: XviD
Аудио кодек: AC3
Видео: 720x400 (1.80:1), 25 fps, XviD build 50 ~906 kbps avg, 0.13 bit/pixel
Аудио: 48 kHz, AC3 Dolby Digital, 2/0 (L,R) ch, ~192 kbps
Cубтитры: отсутствуют

Рецензия:

Поймите — мы и есть плохие парни!Любителям триллеров и боевиков смотреть этот фильм противопоказано. Они просто обидятся на создателей фильма за то, что те считают их полными идиотами. Ну действительно, сюжет практически отсутствует, все персонажи ведут себя абсолютно неадекватно, а главный плохой парень после всех изнасилований, грабежей и убийств ещё и поясняет для особо одарённых: «Это мы плохие парни».Однако, если смотреть фильм в компании друзей, пива и хорошего чувства юмора всё встаёт на свои места. Сразу становится ясно, что это пародия на секс и насилие в кино. Жертв не жалко, а на бандитов нет злости. Многие сцены напоминают сцены из других фильмов, а гитарный футляр Десперадо комически преобразился в скрипичный. В общем, я от души посмеялся над этим «триллером», чего и всем желаю.10 из 10P.S. Фильм не для семейного просмотра.

Media Info:

Общее
Полное имя : E:\!Аминь\Aminj.Nude Nuns with Big Guns.2010.DVDRip.[pirat.ca].avi
Формат : AVI
Формат/Информация : Audio Video Interleave
Размер файла : 695 Мбайт
Продолжительность : 1 ч. 28 м.
Общий поток : 1103 Кбит/сек
Программа кодирования : Lavf52.33.0Видео
Идентификатор : 0
Формат : MPEG-4 Visual
Профиль формата : [email protected]/* */
Параметр BVOP формата : Нет
Параметр QPel формата : Нет
Параметр GMC формата : Без точки перехода
Параметр матрицы формата : Default (H.263)
Идентификатор кодека : XVID
Идентификатор кодека/Подсказка : XviD
Продолжительность : 1 ч. 28 м.
Битрейт : 906 Кбит/сек
Ширина : 720 пикселей
Высота : 400 пикселей
Соотношение сторон : 16:9
Частота кадров : 25,000 кадров/сек
Цветовое пространство : YUV
Субдискретизация насыщенности : 4:2:0
Битовая глубина : 8 бит
Тип развёртки : Прогрессивная
Метод сжатия : С потерями
Бит/(Пиксели*Кадры) : 0.126
Размер потока : 571 Мбайт (82%)
Библиотека кодирования : XviD 1.2.1 (UTC 2008-12-04)Аудио
Идентификатор : 1
Формат : AC-3
Формат/Информация : Audio Coding 3
Расширение режима : CM (complete main)
Параметр Endianness формата : Big
Идентификатор кодека : 2000
Продолжительность : 1 ч. 28 м.
Вид битрейта : Постоянный
Битрейт : 192 Кбит/сек
Каналы : 2 канала
Расположение каналов : Front: L R
Частота : 48,0 КГц
Частота кадров : 31,250 кадров/сек (1536 spf)
Метод сжатия : С потерями
Размер потока : 121 Мбайт (17%)
Выравнивание : Разделение по промежуткам
Продолжительность промежутка : 500 мс. (12,50 видеокадров)
Время предзагрузки промежутка : 500 мс.

Скриншот c названием фильма

Скриншоты

Трейлер

Яндекс.Метрика
Рейтинг@Mail.ru