[ Сегодня на трекере фрилич! Идет свободное скачивание без начисления Download ]

Феникс / Phoenix (Кристиан Петцольд / Christian Petzold) [2014 г., драма, BDRip-AVC, 720p] MVO

 

Создавать темы 08-Сен-2016 04:39

-Феникс / Phoenix-- Производство: Германия, Польша
Год выпуска: 2014 г.
Жанр: драма
Продолжительность: 01:38:00Мировая премьера: 5 сентября 2014
Российская премьера: 2 апреля 2015, «Cinema Prestige»
Перевод: Профессиональный (многоголосый, закадровый)
Режиссер: Кристиан Петцольд / Christian Petzold-В ролях: Нина Хосс, Рональд Церфельд, Нина Кунцендорф, Михаэль Мертенс, Имоген Когге, Керстен Блок, Уве Пройсс, Ева Бэй, Джефф Баррелл-Описание: Нелли Ленц — жертва Холокоста, которой удалось выжить в концлагере. Она ранена, у неё сильно искалечено лицо. Сотрудница Еврейского агентства Лене Винтер помогает Нелли добраться до Берлина, где ей сделали пластическую операцию. Поправившись после операции, Нелли начинает искать своего мужа Йоханнса. Когда она наконец находит его, Йоханнес не узнаёт жену, которую считал погибшей. Тем не менее, он признает, что эта незнакомая ему женщина похожа на его «покойную» жену. И тогда Йоханнес делает деловое предложение Нелли — она должна будет изображать его жену, чтобы получить состояние, которое ей досталось от семьи. Нелли соглашается.-
Качество видео: BDRip-AVC
Контейнер: MKV
Стандарт разрешения: 720p
Видео кодек: MPEG4 AVC
Аудио кодек: AC3
Видео: MPEG-4 AVC, 4011 Кбит/с, 1280x536, 24,000 кадра/сек
Аудио: AC3, 2 ch, 192 Кбит/с, 48,0 КГц
Cубтитры: отсутствуют

Награды

Сан-Себастьян, 2014 год
Победитель (1):
Премия международной ассоциации кинокритиков (ФИПРЕССИ)
Номинации (1):
Золотая раковина

Рецензия

Фильм «Феникс» будет интересен любителям драматического кино.Кристиан Петцольд знает в этом толк и его очередная работа только подтверждает это. Те кому нравится экшен, погони и стрельба: можете проходить мимо! Это не Ваше кино! Для остальных к просмотру обязательно.Хороший, качественный фильм, показывающий, насколько может быть крепкой любовь и на что можно пойти ради встречи с близким человеком.По игре актёров вопросов не возникает. Состав данного фильма не впервые встречается на съёмочной площадке и режиссёр и актеры ранее работали вместе.В фильме хоть и не происходит активных сцен, но он все ровно затягивает своим сюжетом в прямом смысле до последней секунды.Данную работу лично я не отношу к шедеврам. Хороший, смотрибельный фильм.7 из 10

Media Info

Общее
Уникальный идентификатор : 171172003428348977345402888515291979335 (0x80C687592AEEA908B69DEE3D08741E47)
Полное имя : J:\Феникс\Feniks.2014.P.BDRip.720p.[pirat.ca].mkv
Формат : Matroska
Версия формата : Version 2
Размер файла : 2,88 Гбайт
Продолжительность : 1 ч. 38 м.
Общий поток : 4205 Кбит/сек
Дата кодирования : UTC 2016-09-07 08:33:15
Программа кодирования : mkvmerge v5.3.0 ('I could have danced') built on Feb 9 2012 10:38:07
Библиотека кодирования : libebml v1.2.3 + libmatroska v1.3.0Видео
Идентификатор : 1
Формат : AVC
Формат/Информация : Advanced Video Codec
Профиль формата : [email protected]/* */
Параметр CABAC формата : Да
Параметр ReFrames формата : 5 кадров
Идентификатор кодека : V_MPEG4/ISO/AVC
Продолжительность : 1 ч. 38 м.
Битрейт : 4011 Кбит/сек
Ширина : 1280 пикселей
Высота : 536 пикселей
Соотношение сторон : 2,40:1
Режим частоты кадров : Постоянный
Частота кадров : 24,000 кадра/сек
Цветовое пространство : YUV
Субдискретизация насыщенности : 4:2:0
Битовая глубина : 8 бит
Тип развёртки : Прогрессивная
Бит/(Пиксели*Кадры) : 0.244
Размер потока : 2,69 Гбайт (93%)
Библиотека кодирования : x264 core 146 r2538 121396c
Настройки программы : cabac=1 / ref=5 / deblock=1:-2:-2 / analyse=0x3:0x113 / me=umh / subme=8 / psy=1 / psy_rd=1.00:0.15 / mixed_ref=1 / me_range=16 / chroma_me=1 / trellis=2 / 8x8dct=1 / cqm=0 / deadzone=21,11 / fast_pskip=0 / chroma_qp_offset=-3 / threads=6 / lookahead_threads=1 / sliced_threads=0 / nr=0 / decimate=1 / interlaced=0 / bluray_compat=0 / constrained_intra=0 / bframes=3 / b_pyramid=2 / b_adapt=2 / b_bias=0 / direct=3 / weightb=1 / open_gop=0 / weightp=2 / keyint=250 / keyint_min=24 / scenecut=40 / intra_refresh=0 / rc_lookahead=50 / rc=2pass / mbtree=1 / bitrate=4011 / ratetol=1.0 / qcomp=0.60 / qpmin=0 / qpmax=69 / qpstep=4 / cplxblur=20.0 / qblur=0.5 / ip_ratio=1.40 / aq=1:1.00
Язык : English
Default : Нет
Forced : НетАудио
Идентификатор : 2
Формат : AC-3
Формат/Информация : Audio Coding 3
Расширение режима : CM (complete main)
Параметр Endianness формата : Big
Идентификатор кодека : A_AC3
Продолжительность : 1 ч. 38 м.
Вид битрейта : Постоянный
Битрейт : 192 Кбит/сек
Каналы : 2 канала
Расположение каналов : Front: L R
Частота : 48,0 КГц
Частота кадров : 31,250 кадров/сек (1536 spf)
Метод сжатия : С потерями
Размер потока : 135 Мбайт (5%)
Язык : Russian
Default : Да
Forced : Да

Скриншот c названием фильма

Скриншоты

Трейлер

Рейтинг@Mail.ru