Симона / S1m0ne (Эндрю Никкол / Andrew Niccol) [2002 г., фантастика, BDRip] Dub [Мосфильм-Мастер 2002]

 

Создавать темы 08-Сен-2016 04:36

-Симона / S1m0ne-- Производство: США, New Line Cinema, Niccol Films, ...
Год выпуска: 2002 г.
Жанр: фантастика
Продолжительность: 01:57:16Мировая премьера: 23 августа 2002
Российская премьера: 9 января 2003, «Каро-Премьер»
Дата выхода DVD: 21 августа 2003, «Premier Digital»
Перевод: Профессиональный (полное дублирование) [Мосфильм-Мастер 2002]
Режиссер: Эндрю Никкол / Andrew Niccol-В ролях: Аль Пачино, Бенжамин Салисбери, Вайнона Райдер, Дарнелл Уильямс, Джим Рэш, Рон Перкинс, Джей Мор, Кэтрин Кинер, Ивэн Рэйчел Вуд, Джеффри Пирс, Джефф Уильямс, Рэйчел Робертс (I), Митци Мартин, Кристофер Нейман, Джоли Дженкинс, Дэрин Химс-Описание: Съемки фильма поставлены под угрозу срыва, когда актриса, предполагавшаяся на главную роль, отказывается сниматься. Режиссер решает заменить ее цифровой актрисой Симоной, созданной с помощью компьютера.
Однако все принимают искусственную девушку за настоящую. На волне внезапного успеха Симоны режиссер не осмеливается раскрыть свой обман ни окружающим… ни самому себе.-
Качество видео: BDRip
Контейнер: AVI
Видео кодек: XviD
Аудио кодек: AC3
Видео: 720x304 (2.37:1), 23.976 fps, XviD build 73 ~1330 kbps avg, 0.25 bit/pixel
Аудио: 48 kHz, AC3 Dolby Digital, 3/2 (L,C,R,l,r) + LFE ch, ~448 kbps - DUB | Мосфильм-Мастер |
Cубтитры: отсутствуют

Доп. информация

Имя одного из персонажей Хэнк Алино — анаграмма слова «Alone».
В одном эпизоде можно увидеть, что дочь Виктора, Лэйни, читает легенду о Пигмалионе на своем ноутбуке. Пигмалион — в греческой мифологии скульптор, создавший прекрасную статую из слоновой кости и влюбившийся в своё творение, обратился к богине с мольбой вдохнуть в холодное изваяние жизнь.
Оригинальное название фильма — «s1m0ne», расшифровывается как — «simulation number one».
Песню, которую Симона поёт на своем концерте — You Make Me Feel (Like A Natural Woman), исполняет Мэри Джей Блайдж. По сюжету же Виктор синтезирует голос актрисы из голосов других исполнительниц — Уитни Хьюстон и Мадонны.

Рецензия

Замечательный фильм. Интересно было видеть Аль Пачино в непривычном образе, который он раскрыл потрясающе и запоминающее, к тому же сделал это смешно. Так же как всегда поразивший меня перевоплощением. Если обратить внимание, каким был его герой в начале фильма, и какой он стал в конце. Аль в любой роли восхитителен.Идея фильма оригинальна, сюжет не тривиален. Скучать не пришлось, а только, наоборот, с большим увлечением наблюдал за происходящем. Я постоянно задавал вопрос, что же будет дальше? Отличное музыкальное сопровождение. Промелькнули несколько недостатков, довольно таки серьезных. Ну что поделаешь.Беззаботный в начале и усиливающий серьезность и драму в конце, фильм способен тронуть, и заставить задуматься над не которыми вопросами. Над кумирами, которых мы любим, над реальностью в кино, и что такое кино вообще, а так же кто такой такое фанат. Трогательно и грустно.Вообще я доволен, что посмотрел этот фильм. Он достоин внимания, пусть он не шедевр как любят говорить фанаты о любимом фильме. Но он хороший и интересный, драматичный и веселый, умный и оригинальный, запоминается и останется актуальным на всегда.10 из 10

Media Info

Общее
Полное имя : J:\Симона\S1m0ne.2002.HDRip.[pirat.ca].avi
Формат : AVI
Формат/Информация : Audio Video Interleave
Размер файла : 1,46 Гбайт
Продолжительность : 1 ч. 57 м.
Общий поток : 1786 Кбит/сек
Название фильма : S1m0ne.2002.HDRip.[pirat.ca]Видео
Идентификатор : 0
Формат : MPEG-4 Visual
Профиль формата : Advanced [email protected]/* */
Параметр BVOP формата : 1
Параметр QPel формата : Нет
Параметр GMC формата : Без точки перехода
Параметр матрицы формата : Выборочная
Идентификатор кодека : XVID
Идентификатор кодека/Подсказка : XviD
Продолжительность : 1 ч. 57 м.
Битрейт : 1330 Кбит/сек
Ширина : 720 пикселей
Высота : 304 пикселя
Соотношение сторон : 2,35:1
Частота кадров : 23,976 (24000/1001) кадра/сек
Цветовое пространство : YUV
Субдискретизация насыщенности : 4:2:0
Битовая глубина : 8 бит
Тип развёртки : Прогрессивная
Метод сжатия : С потерями
Бит/(Пиксели*Кадры) : 0.253
Размер потока : 1,09 Гбайт (74%)
Библиотека кодирования : XviD 73Аудио
Идентификатор : 1
Формат : AC-3
Формат/Информация : Audio Coding 3
Расширение режима : CM (complete main)
Параметр Endianness формата : Big
Идентификатор кодека : 2000
Продолжительность : 1 ч. 57 м.
Вид битрейта : Постоянный
Битрейт : 448 Кбит/сек
Каналы : 6 каналов
Расположение каналов : Front: L C R, Side: L R, LFE
Частота : 48,0 КГц
Частота кадров : 31,250 кадров/сек (1536 spf)
Метод сжатия : С потерями
Размер потока : 376 Мбайт (25%)
Выравнивание : Соединение по промежуткам
Продолжительность промежутка : 64 мс. (1,53 видеокадра)
Время предзагрузки промежутка : 192 мс.
Заголовок : DUB | Мосфильм-Мастер |

Скриншот c названием фильма

Скриншоты

Трейлер

Яндекс.Метрика
Рейтинг@Mail.ru