[ Сегодня на трекере фрилич! Идет свободное скачивание без начисления Download ]

Нежность / Глаза ангела / The Tender / Eyes of an Angel (Роберт Хармон / Robert Harmon) [1991 г., драма, HDTVRip] MVO

 

Создавать темы 07-Сен-2016 03:55

-Нежность / Глаза ангела / The Tender / Eyes of an Angel-- Производство: США, TransWorld Entertainment (TWE)
Год выпуска: 1991 г.
Жанр: драма
Продолжительность: 01:27:07Мировая премьера: 29 июня 1991
Перевод: Профессиональный (многоголосый, закадровый)
Режиссер: Роберт Хармон / Robert Harmon-В ролях: Джон Траволта, Элли Рааб, Тито Ларрива, Ричард Эдсон, Джеффри ДеМанн, Лиза Циглер, Р. Радделл Везервакс, Джин Ле Белл, Роберт Штицель, Винсент Гуастаферро, Стефен Димопоулос, Ричард Кока-Описание: Неудачник Бобби один воспитывает дочь, ее мать, сестра мафиози, умерла. Брат покойной занимается рэкетом и прочими разновидностями теневого бизнеса, включая собачьи бои. Проигравшего пса по кличке Триполи полуживым выбросили с моста, но девочка выходила его и приютила у себя. Брат-мафиози подставляет Бобби, чтобы забрать к себе дочь покойной сестры, и тот вынужден бежать вместе с дочерью. Однако собака находит их за тысячи миль и помогает избавиться от негодяев.-
Качество видео: HDTVRip
Контейнер: AVI
Видео кодек: XviD
Аудио кодек: AC3
Видео: 720x304 (2.37:1), 25 fps, XviD MPEG-4 ~1828 kbps avg, 0.33 bit/pixel
Аудио: 48 kHz, AC3 Dolby Digital, 2/0 (L,R) ch, ~192 kbps
Cубтитры: отсутствуют

Рецензия

Вот, наконец-то я посмотрела этот фильм и не пожалела своих полтора часа, потраченных на него.В фильме рассказывается о мужчине с дочкой, который потерял жену и у которого проблемы в жизни. Из-за них-то герой и совершает некоторые глупы поступки. Герои сталкиваются с трудностями на своём жизненном пути, но помогает им бойцовский пёс. Никто бы не поверил, что собака поможет преодолеть трудности отцу и его дочери.Игра актёров довольно-таки неплохая. У Джона Траволты вышел хороший персонаж. Правда, он делает некоторые глупости, которые взрослый человек, казалось бы, делать не должен. Хотя, наверное, я не могу судить о его поступках, потому что не оказывалась в подобной ситуации. Элли Рааб сыграла на «ура». У её персонажа мог бы поучиться любой ребёнок. И, конечно же, не могу не отметить животного. Такого преданного, честного, доброго и благодарного. Ведь у людей такие качества встречаются намного реже, чем у собак.Это хороший фильм. Его можно смотреть с семьёй, одному или в компании с другом.Считаю, что этот фильм достоин хорошей оценки:8 из 10

Media Info

Общее
Полное имя : J:\Глаза ангела\Eyes of an Angel.1991.HDTVRip.[pirat.ca].avi
Формат : AVI
Формат/Информация : Audio Video Interleave
Размер файла : 1,24 Гбайт
Продолжительность : 1 ч. 27 м.
Общий поток : 2031 Кбит/сек
Программа кодирования : VirtualDubMod 1.5.10.3 (build 2550/release)
Библиотека кодирования : VirtualDubMod build 2550/releaseВидео
Идентификатор : 0
Формат : MPEG-4 Visual
Профиль формата : Advanced [email protected]/* */
Параметр BVOP формата : 2
Параметр QPel формата : Нет
Параметр GMC формата : Без точки перехода
Параметр матрицы формата : Default (MPEG)
Режим смешивания : Сжатый битовый поток
Идентификатор кодека : XVID
Идентификатор кодека/Подсказка : XviD
Продолжительность : 1 ч. 27 м.
Битрейт : 1829 Кбит/сек
Ширина : 720 пикселей
Высота : 304 пикселя
Соотношение сторон : 2,35:1
Частота кадров : 25,000 кадров/сек
Цветовое пространство : YUV
Субдискретизация насыщенности : 4:2:0
Битовая глубина : 8 бит
Тип развёртки : Прогрессивная
Метод сжатия : С потерями
Бит/(Пиксели*Кадры) : 0.334
Размер потока : 1,11 Гбайт (90%)
Библиотека кодирования : XviD 1.2.0.dev47 (UTC 2006-11-01)Аудио
Идентификатор : 1
Формат : AC-3
Формат/Информация : Audio Coding 3
Расширение режима : CM (complete main)
Параметр Endianness формата : Big
Идентификатор кодека : 2000
Продолжительность : 1 ч. 27 м.
Вид битрейта : Постоянный
Битрейт : 192 Кбит/сек
Каналы : 2 канала
Расположение каналов : Front: L R
Частота : 48,0 КГц
Частота кадров : 31,250 кадров/сек (1536 spf)
Метод сжатия : С потерями
Размер потока : 120 Мбайт (9%)
Выравнивание : Разделение по промежуткам
Продолжительность промежутка : 40 мс. (1,00 видеокадр)
Время предзагрузки промежутка : 500 мс.

Скриншот c названием фильма

Скриншоты

Трейлер

Яндекс.Метрика
Рейтинг@Mail.ru