Блуждающая пуля / Hollow Point (Cидни Дж. Фьюри / Sidney J. Furie) [1996 г., Боевик, триллер, комедия, DVDRip-AVC] MVO + MVO

 

Создавать темы 07-Сен-2016 03:43

-Блуждающая пуля / Hollow Point-- Производство: США, Канада
Год выпуска: 1996 г.
Жанр: Боевик, триллер, комедия
Продолжительность: 01:38:19Мировая премьера: 14 августа 1996
Перевод: Профессиональный (многоголосый, закадровый) [ОРТ]
Перевод 2: Профессиональный (многоголосый, закадровый) [Инис]
Режиссер: Cидни Дж. Фьюри / Sidney J. Furie-В ролях: Томас Йен Гриффит, Тиа Каррере, Джон Литгоу, Дональд Сазерленд, Дэвид Хемблен, Карл Алакки, Роберт Ито, Андреас Апергис, Лиза Бронвин Мур, Климент Денчев-Описание: Агент ФБР Диана Норвуд и агент отдела по борьбе с наркотиками Макс Пэриш охотятся за Ливингстоном, главой итало-русско-китайской мафии, которому необходимо переправить огромную сумму наличных в оффшорные банки. Тот, кто произведет арест, сможет употребить конфискованные деньги на нужды своей конторы, поэтому охота превращается в жестокую конкуренцию!-
Качество видео: DVDRip-AVC
Контейнер: MKV
Видео кодек: MPEG4 AVC
Аудио кодек: AC3
Видео: 702x572 (4:3) @ 750x572, 25 fps, AVC, ~2 600 Kbps, 0.259 bits/pixel
Аудио: 48 kHz, AC3 Dolby Digital, 2/0 (L,R) ch, ~192 kbps ОРТ
Аудио #2: 48 kHz, AC3 Dolby Digital, 2/0 (L,R) ch, ~192 kbps Инис
Cубтитры: отсутствуют

Рецензия

Фильм относительно старый, 1996 года. А автомобили, одежда, приемы съемки и трюки создают впечатление, что фильм снят еще раньше, где-то в восьмидесятые.Однако, этот фильм я пересматривал раз пять по одной причине — мне нравится юмор картины. В основном он мужской: погони, взрывы и драки перемежаются шутками-прибаутками героев. Даже симпатичная азиатка Тиа Каррере играет этакую бой-бабу, готовую разбить морду любому вставшему у нее на пути громиле. Хотя, наверное, найдутся женщины, которым фильм тоже понравится.Отдельное спасибо хочется сказать старичку Дональду Сазерленду, сыгравшему вроде бы второстепенную роль наемного убийцы. Играет так, что порой затмевает главный дуэт героев, исполненный Томасом Йеном Гриффитом и Тиа Каррере. С его окружением сценаристы постарались — чего стоит только студия убийцы с унитазом на постаменте в центре.В общем, в двух словах, это криминальная комедия-боевик с простым сюжетом, хорошими шутками и дешево снятыми трюками-взрывами. Хороший выбор для отдохнуть-посмеяться, не загружая мозг.

Media Info

Общее
Уникальный идентификатор : 178041776963777006065271987779925976775 (0x85F199557C1E987CB48A7FD8F6E026C7)
Полное имя : E:\Блуждающая пуля\Bluzdajuschaja pulja.1996.DVDRip-AVC.[pirat.ca].mkv
Формат : Matroska
Версия формата : Version 2
Размер файла : 2,05 Гбайт
Продолжительность : 1 ч. 38 м.
Общий поток : 2986 Кбит/сек
Дата кодирования : UTC 2016-09-05 14:13:53
Программа кодирования : mkvmerge v5.3.0 ('I could have danced') built on Feb 9 2012 10:38:07
Библиотека кодирования : libebml v1.2.3 + libmatroska v1.3.0Видео
Идентификатор : 1
Формат : AVC
Формат/Информация : Advanced Video Codec
Профиль формата : [email protected]/* */
Параметр CABAC формата : Да
Параметр ReFrames формата : 16 кадров
Идентификатор кодека : V_MPEG4/ISO/AVC
Продолжительность : 1 ч. 38 м.
Битрейт : 2600 Кбит/сек
Ширина : 702 пикселя
Высота : 572 пикселя
Соотношение сторон : 4:3
Режим частоты кадров : Постоянный
Частота кадров : 25,000 кадров/сек
Цветовое пространство : YUV
Субдискретизация насыщенности : 4:2:0
Битовая глубина : 8 бит
Тип развёртки : Прогрессивная
Бит/(Пиксели*Кадры) : 0.259
Размер потока : 1,75 Гбайт (85%)
Заголовок : Hollow Point
Библиотека кодирования : x264 core 148 r2638 7599210
Настройки программы : cabac=1 / ref=16 / deblock=1:1:1 / analyse=0x3:0x113 / me=umh / subme=11 / psy=1 / psy_rd=1.00:0.15 / mixed_ref=1 / me_range=32 / chroma_me=1 / trellis=2 / 8x8dct=1 / cqm=0 / deadzone=21,11 / fast_pskip=0 / chroma_qp_offset=-3 / threads=6 / lookahead_threads=1 / sliced_threads=0 / nr=0 / decimate=1 / interlaced=0 / bluray_compat=0 / constrained_intra=0 / bframes=16 / b_pyramid=2 / b_adapt=2 / b_bias=0 / direct=3 / weightb=1 / open_gop=0 / weightp=2 / keyint=250 / keyint_min=25 / scenecut=40 / intra_refresh=0 / rc_lookahead=60 / rc=2pass / mbtree=1 / bitrate=2600 / ratetol=1.0 / qcomp=0.60 / qpmin=0 / qpmax=69 / qpstep=4 / cplxblur=20.0 / qblur=0.5 / ip_ratio=1.40 / aq=1:1.00
Язык : English
Default : Да
Forced : Нет
Statistics Tags Issue : mkvmerge v8.5.2 ('Crosses') 64bit 2016-02-03 16:34:10 / mkvmerge v5.3.0 ('I could have danced') built on Feb 9 2012 10:38:07 2016-09-05 14:13:53
FromStats_BitRate : 2599504
FromStats_Duration : 01:38:19.480000000
FromStats_FrameCount : 147487
FromStats_StreamSize : 1916965311Аудио #1
Идентификатор : 2
Формат : AC-3
Формат/Информация : Audio Coding 3
Расширение режима : CM (complete main)
Параметр Endianness формата : Big
Идентификатор кодека : A_AC3
Продолжительность : 1 ч. 38 м.
Вид битрейта : Постоянный
Битрейт : 192 Кбит/сек
Каналы : 2 канала
Расположение каналов : Front: L R
Частота : 48,0 КГц
Частота кадров : 31,250 кадров/сек (1536 spf)
Метод сжатия : С потерями
Размер потока : 135 Мбайт (6%)
Заголовок : MVO (ОРТ)
Язык : Russian
Default : Нет
Forced : Нет
Statistics Tags Issue : mkvmerge v8.5.2 ('Crosses') 64bit 2016-02-03 16:34:10 / mkvmerge v5.3.0 ('I could have danced') built on Feb 9 2012 10:38:07 2016-09-05 14:13:53
FromStats_BitRate : 192000
FromStats_Duration : 01:38:19.488000000
FromStats_FrameCount : 184359
FromStats_StreamSize : 141587712Аудио #2
Идентификатор : 3
Формат : AC-3
Формат/Информация : Audio Coding 3
Расширение режима : CM (complete main)
Параметр Endianness формата : Big
Идентификатор кодека : A_AC3
Продолжительность : 1 ч. 38 м.
Вид битрейта : Постоянный
Битрейт : 192 Кбит/сек
Каналы : 2 канала
Расположение каналов : Front: L R
Частота : 48,0 КГц
Частота кадров : 31,250 кадров/сек (1536 spf)
Метод сжатия : С потерями
Размер потока : 135 Мбайт (6%)
Заголовок : MVO (Инис / Voxvideo)
Язык : Russian
Default : Да
Forced : Нет
Statistics Tags Issue : mkvmerge v8.5.2 ('Crosses') 64bit 2016-02-03 16:34:10 / mkvmerge v5.3.0 ('I could have danced') built on Feb 9 2012 10:38:07 2016-09-05 14:13:53
FromStats_BitRate : 192000
FromStats_Duration : 01:38:19.488000000
FromStats_FrameCount : 184359
FromStats_StreamSize : 141587712

Скриншот c названием фильма

Скриншоты

Трейлер

Яндекс.Метрика
Рейтинг@Mail.ru