[ Сегодня на трекере фрилич! Идет свободное скачивание без начисления Download ]

Бессмертные / Tuck Everlasting (Джей Расселл / Jay Russell) [2002 г., фэнтези, драма, мелодрама, семейный, DVDRip] MVO

 

Создавать темы 07-Сен-2016 03:40

-Бессмертные / Tuck Everlasting-- Производство: США, Beacon Communications LLC, Everlasting Pictures, Jane Startz Productions, Scholastic Productions, Walt Disney Pictures, ...
Год выпуска: 2002 г.
Жанр: фэнтези, драма, мелодрама, семейный
Продолжительность: 01:30:21Мировая премьера: 8 сентября 2002
Перевод: Профессиональный (многоголосый, закадровый)
Режиссер: Джей Расселл / Jay Russell-В ролях: Сисси Спейсек, Алексис Бледел, Уильям Хёрт, Джонатан Джексон, Бен Кингсли, Скотт Бэйрстоу-Описание: Фантастическая история на тему бессмертия. В 1914 году девочка из богатой семьи случайно находит в глубине леса (принадлежащего ее отцу) хижину, где живет очень необычное семейство. Этих же людей разыскивает таинственный человек в желтом костюме, у которого насчет них свои планы…-
Качество видео: DVDRip
Контейнер: AVI
Видео кодек: XviD
Аудио кодек: AC3
Видео: 720x304 (2.37:1), 23.976 fps, XviD build 50 ~1914 kbps avg, 0.36 bit/pixel
Аудио: 48 kHz, AC3 Dolby Digital, 3/2 (L,C,R,l,r) + LFE ch, ~384 kbps
Cубтитры: отсутствуют

Рецензия

Короткая, но настоящая жизньМне такие фильмы попадаются крайне редко, да и таких фильмов становится все меньше и меньше. Но, если честно, я думаю, оно и к лучшему, т. к. чувство возникающее, когда понимаешь, что случайный фильм оказался на вес золото неописуемо. «Бессмертные» — прекрасный фильм о вечной теме: жизнь и бессмертие.С самого начала я поняла, что не оторвусь от экрана все полтора часа. Первое на что обращаешь внимание это чудесная музыка дикого запада с вкраплениями сказки. И далее сюжет, пейзажи, актеры и, конечно же, сама идея, философия фильма удивляют и притягивают.Молодая Уинни Фостер живет в богатстве, но в обязанности. Ей необходимо многому учиться, соблюдать строгий этикет, но больше в ее жизни запретов. Ей такой расклад не нравится. По воле случая она оказывается в лесу, заблудившись. Здесь, возле дуба, происходит встреча с ее первой любовью.Фильм держит одновременно в напряжении и одновременно поражает своим спокойствием, гармонией.Картина о том, сможем ли мы, подойдя к порогу старости, сказать, что достойно прожили жизнь. Тогда на лодке Ангус Так говорил очень мудрые слова. Смерти не стоит бояться, ведь она часть процесса, также как рождение. Погаснет одна свеча и загорится новая. Я думаю, что смерть — это новое начало. Хотя в фильме было и не главное, что выбрать: короткую полноценную жизнь или бессмертие. Но каждый из нас задумался. Интересно ведь иметь выбор, правда? Причем, я думаю, что оба выбора правильны, в той или иной степени, то есть правильного выбора нет! Я отдаю абсолютное согласие с выбором героини.Фильм замечательный от начала до конца, снаружи и внутри. Для меня недостатков здесь нет. Рекомендую к просмотру.10 из 10

Media Info

oбщее
Полное имя : E:\Бессмертные\Tuck Everlasting.2002.DVDRip.[pirat.ca].avi
Формат : AVI
Формат/Информация : Audio Video Interleave
Размер файла : 1,46 Гбайт
Продолжительность : 1 ч. 30 м.
Общий поток : 2307 Кбит/сек
Название фильма : Tuck Everlasting.2002.DVDRip.[pirat.ca]
Программа кодирования : VirtualDubModRus 1.5.10.2 (build 2542/release)Видео
Идентификатор : 0
Формат : MPEG-4 Visual
Профиль формата : Advanced [email protected]/* */
Параметр BVOP формата : 1
Параметр QPel формата : Нет
Параметр GMC формата : Без точки перехода
Параметр матрицы формата : Выборочная
Идентификатор кодека : XVID
Идентификатор кодека/Подсказка : XviD
Продолжительность : 1 ч. 30 м.
Битрейт : 1914 Кбит/сек
Ширина : 720 пикселей
Высота : 304 пикселя
Соотношение сторон : 2,35:1
Частота кадров : 23,976 (24000/1001) кадра/сек
Цветовое пространство : YUV
Субдискретизация насыщенности : 4:2:0
Битовая глубина : 8 бит
Тип развёртки : Прогрессивная
Метод сжатия : С потерями
Бит/(Пиксели*Кадры) : 0.365
Размер потока : 1,21 Гбайт (83%)
Библиотека кодирования : XviD 1.2.1 (UTC 2008-12-04)Аудио
Идентификатор : 1
Формат : AC-3
Формат/Информация : Audio Coding 3
Расширение режима : CM (complete main)
Параметр Endianness формата : Big
Идентификатор кодека : 2000
Продолжительность : 1 ч. 30 м.
Вид битрейта : Постоянный
Битрейт : 384 Кбит/сек
Каналы : 6 каналов
Расположение каналов : Front: L C R, Side: L R, LFE
Частота : 48,0 КГц
Частота кадров : 31,250 кадров/сек (1536 spf)
Метод сжатия : С потерями
Размер потока : 248 Мбайт (17%)
Выравнивание : Разделение по промежуткам
Продолжительность промежутка : 42 мс. (1,00 видеокадр)
Время предзагрузки промежутка : 500 мс.

Скриншот c названием фильма

Скриншоты

Трейлер

Яндекс.Метрика
Рейтинг@Mail.ru