[ Сегодня на трекере фрилич! Идет свободное скачивание без начисления Download ]

Близкие контакты третьей степени / Close Encounters of the Third Kind (Стивен Спилберг)[1977, Фантастика, Драма, Приключения, BDRip 720p]

 

Создавать темы 05-Янв-2014 05:44

-«Now There Is More»-
Информация о фильме
Название: Близкие контакты третьей степени
Оригинальное название: Close Encounters of the Third Kind
Год выхода: 1977
Жанр: Фантастика, Драма, Приключения
Режиссер: Стивен Спилберг / Steven Spielberg
В ролях: Ричард Дрейфусс, Франсуа Трюффо, Тери Гарр, Мелинда Диллон, Боб Бэлабан, Дж. Патрик МакНамара, Уоррен Дж. Кеммерлинг, Робертс Блоссом, Филип Доддс, Кэри Гуффи, Лэнс Хенриксен
О фильме:
Сбои в подаче электроэнергии, возвращение из ниоткуда самолетов, исчезнувших в 1945 году, обескураживают ученых. Наименее скептичные люди науки расценивают эти явления, как прямое доказательство существования разумной инопланетной формы жизни. Рой Неари едет в пустыню, где были найдены самолеты, чтобы провести собственное расследование. Ночью его автомобиль застревает на шоссе. Неожиданно в темном небе появляется загадочный источник яркого света. Всего на мгновенье Неари попадает под его лучи, несущие информацию из далеких миров. После контакта с внеземной цивилизацией Рой оказывается во власти странных видений, и это происходит не только с ним…-

-Страна: США
Продолжительность: 02:17:14
Перевод: Профессиональный (многоголосный)
Файл
Кодек: H.264
Формат: MKV
Качество: BDRip [720p]
Видео: MPEG-4, 1280 x 544, 23.976 fps, ~7232 Kbit/s, 0.421 bit/pixel
Звук#1: AC3, 48,0 kHz, 6 ch, 448.00 kbps (Русский многоголосый закадровый)
Звук#2: DTS, 48,0 kHz, 6 ch, 1536.00 kbps (Авторский одноголосый - С.Визгунов)
Звук#3: DTS, 48,0 kHz, 6 ch, 1536.00 kbps (Оригинальный английский)
Субтитры: Русские, английские
-

MediaInfo:

General
Complete name : N:Близкие контакты третьей степени (1977) [720p] BDRip-AVC.mkv
Format : Matroska
File size : 10.3 GiB
Duration : 2h 17mn
Overall bit rate : 10.7 Mbps
Movie name : Close Encounters of the Third Kind [Режиссёрская версия / Director's Cut] 1977
Encoded date : UTC 2013-09-12 03:49:15
Writing application : mkvmerge v5.8.0 ('No Sleep / Pillow') built on Sep 2 2012 15:37:04
Writing library : libebml v1.2.3 + libmatroska v1.3.0
Cover : Yes
Video #1
ID : 1
Format : AVC
Format/Info : Advanced Video Codec
Format profile : [email protected]
Format settings, CABAC : Yes
Format settings, ReFrames : 12 frames
Muxing mode : Container [email protected]
Codec ID : V_MPEG4/ISO/AVC
Duration : 2h 17mn
Bit rate : 7 022 Kbps
Width : 1 280 pixels
Height : 544 pixels
Display aspect ratio : 2.35:1
Frame rate : 23.976 fps
Color space : YUV
Chroma subsampling : 4:2:0
Bit depth : 8 bits
Scan type : Progressive
Bits/(Pixel*Frame) : 0.421
Stream size : 6.73 GiB (66%)
Title : Close Encounters of the Third Kind
Writing library : x264 core 135 r2345kMod f0c1c53
Encoding settings : cabac=1 / ref=12 / deblock=1:-3:-3 / analyse=0x3:0x133 / me=umh / subme=11 / psy=1 / fade_compensate=0.00 / psy_rd=1.00:0.00 / mixed_ref=1 / me_range=32 / chroma_me=1 / trellis=2 / 8x8dct=1 / cqm=0 / deadzone=21,11 / fast_pskip=0 / chroma_qp_offset=-2 / threads=6 / lookahead_threads=1 / sliced_threads=0 / nr=0 / decimate=1 / interlaced=0 / bluray_compat=0 / constrained_intra=0 / bframes=12 / b_pyramid=2 / b_adapt=2 / b_bias=0 / direct=3 / weightb=1 / open_gop=0 / weightp=2 / keyint=240 / keyint_min=23 / scenecut=40 / intra_refresh=0 / rc_lookahead=60 / rc=crf / mbtree=0 / crf=18.0000 / qcomp=0.60 / qpmin=0 / qpmax=69 / qpstep=4 / vbv_maxrate=50000 / vbv_bufsize=62500 / crf_max=0.0 / nal_hrd=none / ip_ratio=1.40 / pb_ratio=1.25 / aq=1:0.60
Language : English
Matrix coefficients : BT.709-5, BT.1361, IEC 61966-2-4 709, SMPTE RP177
Audio #2
ID : 2
Format : AC-3
Format/Info : Audio Coding 3
Mode extension : CM (complete main)
Codec ID : A_AC3
Duration : 2h 17mn
Bit rate mode : Constant
Bit rate : 448 Kbps
Channel(s) : 6 channels
Channel positions : Front: L C R, Side: L R, LFE
Sampling rate : 48.0 KHz
Bit depth : 16 bits
Stream size : 440 MiB (4%)
Title : Многоголосый
Language : Russian
Audio #3
ID : 3
Format : DTS
Format/Info : Digital Theater Systems
Codec ID : A_DTS
Duration : 2h 17mn
Bit rate mode : Constant
Bit rate : 1 510 Kbps
Channel(s) : 6 channels
Channel positions : Front: L C R, Side: L R, LFE
Sampling rate : 48.0 KHz
Bit depth : 24 bits
Stream size : 1.45 GiB (14%)
Title : С.Визгунов
Language : Russian
Audio #4
ID : 4
Format : DTS
Format/Info : Digital Theater Systems
Codec ID : A_DTS
Duration : 2h 17mn
Bit rate mode : Constant
Bit rate : 1 510 Kbps
Channel(s) : 6 channels
Channel positions : Front: L C R, Side: L R, LFE
Sampling rate : 48.0 KHz
Bit depth : 24 bits
Stream size : 1.45 GiB (14%)
Title : Английский
Language : English
Text #5
ID : 5
Format : UTF-8
Codec ID : S_TEXT/UTF8
Codec ID/Info : UTF-8 Plain Text
Title : Русские
Language : Russian
Text #6
ID : 6
Format : UTF-8
Codec ID : S_TEXT/UTF8
Codec ID/Info : UTF-8 Plain Text
Title : Английские #1
Language : English
Text #7
ID : 7
Format : UTF-8
Codec ID : S_TEXT/UTF8
Codec ID/Info : UTF-8 Plain Text
Title : Английские #2

Скриншоты

Яндекс.Метрика
Рейтинг@Mail.ru