Старая дева / La vieille fille (Жан-Пьер Блан / Jean-Pierre Blanc) [1971 г., комедия, DVDRip-AVC] Dub Sub (Rus)

 

Создавать темы 07-Сен-2016 03:37

-Старая дева / La vieille fille-- Производство: Франция, Италия
Год выпуска: 1971 г.
Жанр: комедия
Продолжительность: 01:24:15Мировая премьера: 5 января 1972
Перевод: Профессиональный (полное дублирование) [«Союзмультфильм»]
Режиссер: Жан-Пьер Блан / Jean-Pierre Blanc-В ролях: Анни Жирардо, Филипп Нуаре, Марта Келлер, Эдит Скоб, Катрин Сами, Мария Шнайдер, Лоренца Гуэррьери, Альбер Симоно, Жан-Пьер Даррас, Мишель Лонсдаль (Майкл Лонсдейл), Клодин Ассера-Описание: Мюриель — очень стеснительная женщина. Однажды она приезжает на курорт. Вокруг — сплошные соблазны, а на душе у Мюриель — тоска. Всю жизнь она считает себя неудачницей. Всю жизнь ей говорят о том, что комплекс неполноценности не лечится.И вот, как назло, в первую же минуту по приезде, она знакомится с мужчиной своей мечты. Бедная Мюриель! Выход — только один: стать сильной женщиной.-
Качество видео: DVDRip-AVC
Контейнер: MKV
Видео кодек: MPEG4 AVC
Аудио кодек: AC3
Видео: x264: ([email protected]/* */); [email protected]/* */; Display aspect ratio: 1.573:1, 25.000 fps, 2081 Kbps
Аудио: AC-3; 16 bit 48 Khz; 2.0 ch 192 Kbps; CBR | Dub
Cубтитры: русские
Формат субтитров: softsub (SRT)
Доп. информация о субтитрах: включаемые

Рецензия

Критически можно и разбить фильм как красивую вазу, но
великолепная игра выдающихся актёров французского кинематографа делает фильм таким приятным, душевно узнаваемым, что всё кажется таким гармоничным и хочется увидеть или домыслить окончание сюжета.

Media Info

Общее
Уникальный идентификатор : 247431739019188786353759419168700703464 (0xBA259E99F829759889FF0379662B22E8)
Полное имя : J:\Старая дева\Старая дева.1972.DVDRip-AVC.[pirat.ca].mkv
Формат : Matroska
Версия формата : Version 2
Размер файла : 1,34 Гбайт
Продолжительность : 1 ч. 24 м.
Общий поток : 2275 Кбит/сек
Дата кодирования : UTC 2016-09-05 15:30:13
Программа кодирования : mkvmerge v5.3.0 ('I could have danced') built on Feb 9 2012 10:38:07
Библиотека кодирования : libebml v1.2.3 + libmatroska v1.3.0
Примечание : DVDRip-AVC
Encoded by : george$t®
Originally released : September 3rd 2016Видео
Идентификатор : 1
Формат : AVC
Формат/Информация : Advanced Video Codec
Профиль формата : [email protected]/* */
Параметр CABAC формата : Да
Параметр ReFrames формата : 16 кадров
Идентификатор кодека : V_MPEG4/ISO/AVC
Продолжительность : 1 ч. 24 м.
Битрейт : 2081 Кбит/сек
Ширина : 690 пикселей
Высота : 478 пикселей
Соотношение сторон : 16:10
Соотношение сторон в оригинале : 16:10
Режим частоты кадров : Постоянный
Частота кадров : 25,000 кадров/сек
Цветовое пространство : YUV
Субдискретизация насыщенности : 4:2:0
Битовая глубина : 8 бит
Тип развёртки : Прогрессивная
Бит/(Пиксели*Кадры) : 0.252
Размер потока : 1,20 Гбайт (90%)
Заголовок : Старая дева / La vieille fille.1972
Библиотека кодирования : x264 core 148 r2705kMod 3f5ed56
Настройки программы : cabac=1 / ref=16 / deblock=1:-2:-2 / analyse=0x3:0x133 / me=umh / subme=11 / psy=1 / fade_compensate=0.00 / psy_rd=1.00:0.15 / mixed_ref=1 / me_range=32 / chroma_me=1 / trellis=2 / 8x8dct=1 / cqm=0 / deadzone=21,11 / fast_pskip=1 / chroma_qp_offset=-3 / threads=12 / lookahead_threads=2 / sliced_threads=0 / nr=0 / decimate=1 / interlaced=0 / bluray_compat=0 / constrained_intra=0 / fgo=0 / bframes=8 / b_pyramid=2 / b_adapt=2 / b_bias=0 / direct=3 / weightb=1 / open_gop=0 / weightp=2 / keyint=250 / keyint_min=25 / scenecut=40 / intra_refresh=0 / rc_lookahead=40 / rc=2pass / mbtree=0 / bitrate=2081 / ratetol=1.0 / qcomp=0.60 / qpmin=0 / qpmax=69 / qpstep=4 / cplxblur=20.0 / qblur=0.5 / vbv_maxrate=50000 / vbv_bufsize=62500 / nal_hrd=none / filler=0 / ip_ratio=1.22 / pb_ratio=1.20 / aq=1:0.60
Язык : French
Default : Да
Forced : Нет
Цветовой диапазон : Limited
Основные цвета : BT.601 PAL
Характеристики трансфера : BT.470 System B, BT.470 System G
Коэффициенты матрицы : BT.601Аудио
Идентификатор : 2
Формат : AC-3
Формат/Информация : Audio Coding 3
Расширение режима : CM (complete main)
Параметр Endianness формата : Big
Идентификатор кодека : A_AC3
Продолжительность : 1 ч. 24 м.
Вид битрейта : Постоянный
Битрейт : 192 Кбит/сек
Каналы : 2 канала
Расположение каналов : Front: L R
Частота : 48,0 КГц
Частота кадров : 31,250 кадров/сек (1536 spf)
Метод сжатия : С потерями
Размер потока : 116 Мбайт (8%)
Заголовок : Дубляж: AC-3; 16 bit 48 Khz; 2.0 ch 192 Kbps; CBR | "Союзмультфильм"
Язык : Russian
Default : Да
Forced : НетТекст
Идентификатор : 3
Формат : UTF-8
Идентификатор кодека : S_TEXT/UTF8
Идентификатор кодека/Информация : UTF-8 Plain Text
Заголовок : Субтитры русские
Язык : Russian
Default : Нет
Forced : Нет

Скриншот c названием фильма

Скриншоты

Трейлер

Яндекс.Метрика
Рейтинг@Mail.ru