Феномен (а) / Phenomena (Дарио Ардженто / Dario Argento) [1984 г., ужасы, детектив, BDRip-AVC, 720p] [Uncut] DVO + Sub (Rus)

 

Создавать темы 07-Сен-2016 03:19

-Феномен (а) / Phenomena / Uncut-- Производство: Италия
Год выпуска: 1984 г.
Жанр: ужасы, детектив
Продолжительность: 01:55:30Мировая премьера: 31 января 1985
Дата выхода DVD: 21 августа 2008, «Cinema Prestige»
Перевод: Профессиональный (двухголосый, закадровый) [R5]
Режиссер: Дарио Ардженто / Dario Argento-В ролях: Дженнифер Коннелли (Ракетчик), Дария Николоди, Фьоре Ардженто, Федерика Мастрояни, Фиоренца Тессари, Далила Ди Лаззаро, Патрик Бошо, Дональд Плезенс, Альберто Кракко, Каспар Каппарони-Описание: Красавицу-студентку Дженнифер Корвино родители отправили в престижный женский пансион в Швейцарии. Вскоре выясняется, что девушка — сомнамбула, гуляющая по ночам, в то время как кто-то убивает ее подруг с неподдающейся описанию жестокостью. Весьма странный биолог, изучающий трупных червей и насекомых, берется помочь полиции в определении времени убийств…-
Качество видео: BDRip-AVC
Контейнер: MKV
Стандарт разрешения: 720p
Видео кодек: MPEG4 AVC
Аудио кодек: AC3
Видео: 1200x720 (1,66:1), 23.976 fps, 4200 kbps
Аудио: AC-3, 6 ch, 384 kbps, 48,0 kHz
Cубтитры: русские
Формат субтитров: softsub (SRT)
Доп. информация о субтитрах: включаемые

Доп. информация

Фильм снимался в Цюрихе.
Фильм стал первой работой Ардженто на английском языке.
Шимпанзе с бритвой в руках, которая появляется в фильме, ранее снималась в комедиях вместе с Адриано Челентано.
В сцене, в которой можно видеть бассейн с расчленёнными трупами и червями, в качестве материалов для человеческих черепов использовалась пластмасса.

Рецензия

Ночь. Покой и тишину нарушает только шелест листвы. Причудливые тени скользят по траве, рисуя самые невероятные узоры. Крик. Холодная вспышка света на лезвии ножа. Стон. И только «бессонных солнце» видит восторг в глазах убийцы.Швейцария маленькая страна, где жизнь течет медленно и спокойно. Что может произойти в государстве, где на альпийских лугах пасутся упитанные буренки и делают лучший в мире шоколад? Разве есть в этой надежности место безумию и торжеству маньяка, поймавшего новую жертву? Есть говорит Ардженто своим фильмом «Феномен». Более того даже в самом спокойном и укромном уголке мира власть пусть и на время могут занять сумасшествие и необъяснимое. Как и в предыдущих своих работах, режиссер сочетает сразу несколько жанров и направлений, готовит пряный, горячий и тонкий коктейль из триллера, мистики и детектива, не забывая про каплю готики.Первоначально сюжет напоминает «Суспирию», школа, тайна, юная героиня и, конечно же, убийства. Но постепенно фильм обретает исключительное звучание и идет собственной дорогой. Однако «Феномен» похож на первый фильм трилогии о «матерях мрака» еще и отсутствием лишних сюжетных нагромождений, оборванных концов и линий, которые никуда не ведут, как это часто бывает с итальянскими работами в жанре ужасов. Постановка в нем более гармонична, а садистские изыски поданы с изуверским очарованием и торжеством безумия.«Феномен» Ардженто, как наполненная до краев чаша, в нем есть все от точной и строгой науки, до средневекового мистицизма, а грань между ними так же тонка, как пелена между сном и бодрствованием. Способности Дженнифер необъяснимы, феноменальны, в темные века ее окрестили бы ведьмой и сожгли на костре, так как человеку свойственно бояться того, чего он понять не в силах. Тоже самое происходит и в фильме. Ее красота, ее ум, ее болезнь и самое главное ее дар пробуждают в окружающих отторжение и неприязнь, которые находят выход в откровенной ненависти. Но у этого есть и обратная сторона — лунатизм. Как героиня готического романа Анны Радклиф, Дженнифер блуждает по закоулкам пансиона и становится свидетельницей убийства, что рождает за собой череду странных и страшных событий в ее судьбе.Ардженто, как мастеру ярких образов и необычных решений постановки было нетрудно, создать целую серию пугающих, отвратительных до дрожи и в тоже время притягательных сцен. Начиная с уже помянутого сомнамбулического путешествия героини под «Iron Maiden» и заканчивая ямой с разлагающимися трупами, где Дженнифер еще предстоит искупаться. Последняя сцена вообще заслуживает отдельного места в списке самых лучших и страшных в истории ужасов. Не менее жуток, оказывается и человек, вернее существо, стоящее за преступлениями. Притом режиссер не слишком откровенничает со зрителем, не дает подсказок, не делает намеков, он ставит перед фактом, вот он — убийца радуйтесь и бойтесь, бегите прочь, и прячьтесь, иначе он доберется и до вас. В его преступнике нет изящества или определенной доли человечности способной пробудить если не сочувствие и понимание к личности маньяка, то болезненный интерес, только отвращение и страх. Убийца Ардженто — сама смерть, которая прекрасна и эротична только в романтических фильмах про красавцев вампиров, в «Феномена» эта дама сродни гниющей плоти и тонкому аромату выгребных ям с копошащимися в них белыми, слепыми червями.Ночь. Тишину нарушает только тихий звук капающей воды, хотя нет, для воды тон слишком глух, жидкость вязкая и тягучая так может звучать только кровь, падающая тяжелыми каплями на равнодушный камень. Рассвет.10 из 10

Media Info

Общее
Уникальный идентификатор : 205843551590829121178779805008188582466 (0x9ADC06A711D0C9699A8AFEC5654EAA42)
Полное имя : E:\Феномен А\Phenomena.1985.BDRip-AVC.720p.[pirat.ca].mkv
Формат : Matroska
Версия формата : Version 2
Размер файла : 3,70 Гбайт
Продолжительность : 1 ч. 55 м.
Общий поток : 4585 Кбит/сек
Название фильма : Феномен / Phenomena (1985) | Uncut
Дата кодирования : UTC 2016-09-06 13:34:56
Программа кодирования : mkvmerge v5.3.0 ('I could have danced') built on Feb 9 2012 10:38:07
Библиотека кодирования : libebml v1.2.3 + libmatroska v1.3.0Видео
Идентификатор : 1
Формат : AVC
Формат/Информация : Advanced Video Codec
Профиль формата : [email protected]/* */
Параметр CABAC формата : Да
Параметр ReFrames формата : 9 кадров
Идентификатор кодека : V_MPEG4/ISO/AVC
Продолжительность : 1 ч. 55 м.
Битрейт : 4200 Кбит/сек
Ширина : 1200 пикселей
Высота : 720 пикселей
Соотношение сторон : 5:3
Режим частоты кадров : Постоянный
Частота кадров : 23,976 (24000/1001) кадра/сек
Цветовое пространство : YUV
Субдискретизация насыщенности : 4:2:0
Битовая глубина : 8 бит
Тип развёртки : Прогрессивная
Бит/(Пиксели*Кадры) : 0.203
Размер потока : 3,32 Гбайт (90%)
Библиотека кодирования : x264 core 140 r2377 1ca7bb9
Настройки программы : cabac=1 / ref=9 / deblock=1:-3:-3 / analyse=0x3:0x133 / me=umh / subme=11 / psy=1 / psy_rd=1.00:0.00 / mixed_ref=1 / me_range=32 / chroma_me=1 / trellis=2 / 8x8dct=1 / cqm=0 / deadzone=21,11 / fast_pskip=0 / chroma_qp_offset=-2 / threads=12 / lookahead_threads=2 / sliced_threads=0 / nr=0 / decimate=0 / interlaced=0 / bluray_compat=0 / constrained_intra=0 / bframes=7 / b_pyramid=2 / b_adapt=2 / b_bias=0 / direct=3 / weightb=1 / open_gop=0 / weightp=2 / keyint=240 / keyint_min=23 / scenecut=40 / intra_refresh=0 / rc=2pass / mbtree=0 / bitrate=4200 / ratetol=1.0 / qcomp=0.60 / qpmin=0 / qpmax=69 / qpstep=4 / cplxblur=20.0 / qblur=0.5 / ip_ratio=1.40 / pb_ratio=1.30 / aq=1:1.00
Язык : Italian
Default : Да
Forced : НетАудио
Идентификатор : 2
Формат : AC-3
Формат/Информация : Audio Coding 3
Расширение режима : CM (complete main)
Параметр Endianness формата : Big
Идентификатор кодека : A_AC3
Продолжительность : 1 ч. 55 м.
Вид битрейта : Постоянный
Битрейт : 384 Кбит/сек
Каналы : 6 каналов
Расположение каналов : Front: L C R, Side: L R, LFE
Частота : 48,0 КГц
Частота кадров : 31,250 кадров/сек (1536 spf)
Метод сжатия : С потерями
Размер потока : 317 Мбайт (8%)
Заголовок : Двухголосый закадровый, R5
Язык : Russian
Default : Да
Forced : НетТекст
Идентификатор : 3
Формат : UTF-8
Идентификатор кодека : S_TEXT/UTF8
Идентификатор кодека/Информация : UTF-8 Plain Text
Заголовок : Rus
Язык : Russian
Default : Нет
Forced : НетМеню
00:00:00.000 : :Chapter 01
00:06:57.083 : :Chapter 02
00:11:43.536 : :Chapter 03
00:19:29.960 : :Chapter 04
00:28:05.893 : :Chapter 05
00:36:11.127 : :Chapter 06
00:45:38.527 : :Chapter 07
00:53:46.348 : :Chapter 08
00:57:56.181 : :Chapter 09
01:05:41.062 : :Chapter 10
01:11:36.209 : :Chapter 11
01:20:23.068 : :Chapter 12
01:29:23.650 : :Chapter 13
01:36:05.802 : :Chapter 14
01:43:50.933 : :Chapter 15
01:52:55.268 : :Chapter 16

Скриншот c названием фильма

Скриншоты

Трейлер

Яндекс.Метрика
Рейтинг@Mail.ru