Лотте и тайна лунного камня / Lotte ja kuukivi saladus (Хейки Эрниц / Heiki Ernits) [2011 г., мультфильм, семейный, HDTVRip] Dub [Rija Films]

 

Создавать темы 07-Сен-2016 03:16

-Лотте и тайна лунного камня / Lotte ja kuukivi saladus-- Производство: Эстония, Латвия
Год выпуска: 2011 г.
Жанр: мультфильм, семейный
Продолжительность: 01:12:49Мировая премьера: 25 августа 2011
Перевод: Профессиональный (полное дублирование) [Rija Films]
Режиссер: Хейки Эрниц / Heiki Ernits-В ролях: Эвелин Панг, Маргус Табор, Майт Мальмстен, Микк Юрьенс, Тони Ойя, Лембит Ульфсак, Тийт Сукк, Мерле Пальмисте-Описание: Как-то раз под покровом ночи в деревню Изобретателей пробрались двое неизвестных, которых интересовал чемодан пса-путешественника Клауса. Собачка Лотте застигла незнакомцев, которые в испуге кинули желтый камень, взятый из чемодана Клауса, и убежали. Лотте выясняет, что это не какой-то простой камень, а необыкновенный — с серьезным механизмом внутри…-
Качество видео: HDTVRip
Контейнер: AVI
Видео кодек: XviD
Аудио кодек: MP3
Видео: 980x552 (1.78:1), 25 fps, XviD build 63 ~2506 kbps avg, 0.19 bit/pixel
Аудио: 48 kHz, MPEG Layer 3, 2 ch, ~192.00 kbps avg
Cубтитры: отсутствуют

Доп. информация

Русский дубляж выполнен эстонской телекомпанией ETV при поддержке Института кино Эстонии.
(А кому им ещё показывать? Ладно, их спасает то, что фильм действительно нравится детям - сам смотрел!)

Media Info

Общее
Полное имя : J:\Лотте и тайна лунного камня\Lotte i tajna Lunnogo Kamnja.2011.HDTV.[pirat.ca].avi
Формат : AVI
Формат/Информация : Audio Video Interleave
Профиль формата : OpenDML
Размер файла : 1,38 Гбайт
Продолжительность : 1 ч. 12 м.
Общий поток : 2705 Кбит/сек
Программа кодирования : Lavf51.12.1Видео
Идентификатор : 0
Формат : xvid
Идентификатор кодека : xvid
Продолжительность : 1 ч. 12 м.
Битрейт : 2498 Кбит/сек
Ширина : 980 пикселей
Высота : 552 пикселя
Соотношение сторон : 16:9
Частота кадров : 25,000 кадров/сек
Бит/(Пиксели*Кадры) : 0.185
Размер потока : 1,27 Гбайт (92%)Аудио
Идентификатор : 1
Формат : MPEG Audio
Версия формата : Version 1
Профиль формата : Layer 3
Режим : Joint stereo
Расширение режима : MS Stereo
Идентификатор кодека : 55
Идентификатор кодека/Подсказка : MP3
Продолжительность : 1 ч. 12 м.
Вид битрейта : Постоянный
Битрейт : 192 Кбит/сек
Каналы : 2 канала
Частота : 48,0 КГц
Метод сжатия : С потерями
Размер потока : 100,0 Мбайт (7%)
Выравнивание : Соединение по промежуткам
Продолжительность промежутка : 24 мс. (0,60 видеокадр)

Скриншот c названием фильма

Скриншоты

Трейлер

Яндекс.Метрика
Рейтинг@Mail.ru