Ошибка пилота: Тайна рейса 1501 / Crash: The Mystery of Flight 1501 (Филип Савилл)[1990,Драма, детектив, DVDRip] от MediaClub | L1

 

Создавать темы 05-Янв-2014 05:26

Информация о фильме
Название: Ошибка пилота: Тайна рейса 1501
Оригинальное название: Crash: The Mystery of Flight 1501
Год выхода: 1990
Жанр: Драма, детектив
Режиссер: Филип Савилл
В ролях: Шерил Лэдд, Джеффри ДеМун, Фредерик Коффин, Питер Джурасик, Джим Метцлер, Джефф МакКарти, Мойра Уолли, Даг Шиэн, Паула Престон
О фильме:
Пассажирский самолет терпит авиакатастрофы, что приводит к гибели 187 человек. Авиакомпания заявляет, что причиной трагедии стала ошибка пилота. Жена погибшего пилота, Диана Халстид, убеждена, что ее муж, не причастен к происшествию, но никто не собирается слушать ее. Она предпринимает собственное расследование, чтобы узнать, что произошло ни самом деле…

Страна: США
Студия: Citadel Entertainment, Consolidated Entertainment, Schaefer/Karpf Productions
Продолжительность: 01:31:13
Перевод: Любительский одноголосый
Файл
Кодек: XviD
Качество: DVDRip
Видео: 1750 Кбит/с, 720x544, 25.000 кадр/с
Звук:
Аудио #1: Русский (АС3, 6 ch, 448 Кбит/с)
Аудио #2: Английский (AC3, 6 ch, 448 Кбит/с)
Аудио #3: Литовский (AC3, 6 ch, 384 Кбит/с)

Скриншоты

MI

Общее
Полное имя : Oshibka.pilota.1990.DVDRip.MediaClub.avi
Формат : AVI
Формат/Информация : Audio Video Interleave
Размер файла : 1,94 Гбайт
Продолжительность : 1 ч. 31 м.
Общий поток : 3049 Кбит/сек
Название фильма : MediaClub
Программа кодирования : VirtualDubMod 1.5.10.2 (build 2540/release)
Библиотека кодирования : VirtualDubMod build 2540/release
Видео
Идентификатор : 0
Формат : MPEG-4 Visual
Профиль формата : Advanced [email protected]
Параметр BVOP формата : 2
Параметр QPel формата : Нет
Параметр GMC формата : Без точки перехода
Параметр матрицы формата : Default (MPEG)
Идентификатор кодека : XVID
Идентификатор кодека/Подсказка : XviD
Продолжительность : 1 ч. 31 м.
Битрейт : 1750 Кбит/сек
Ширина : 720 пикселей
Высота : 544 пикселя
Соотношение сторон : 4:3
Частота кадров : 25,000 кадров/сек
Цветовое пространство : YUV
Субдискретизация насыщенности : 4:2:0
Битовая глубина : 8 бит
Тип развёртки : Прогрессивная
Метод сжатия : С потерями
Бит/(Пиксели*Кадры) : 0.179
Размер потока : 1,11 Гбайт (57%)
Библиотека кодирования : XviD 65
Аудио #1
Идентификатор : 1
Формат : AC-3
Формат/Информация : Audio Coding 3
Расширение режима : CM (complete main)
Параметр Endianness формата : Big
Идентификатор кодека : 2000
Продолжительность : 1 ч. 31 м.
Вид битрейта : Постоянный
Битрейт : 448 Кбит/сек
Каналы : 6 каналов
Расположение каналов : Front: L C R, Side: L R, LFE
Частота : 48,0 КГц
Битовая глубина : 16 бит
Метод сжатия : С потерями
Размер потока : 292 Мбайт (15%)
Выравнивание : Разделение по промежуткам
Продолжительность промежутка : 40 мс. (1,00 видеокадр)
Время предзагрузки промежутка : 500 мс.
Аудио #2
Идентификатор : 2
Формат : AC-3
Формат/Информация : Audio Coding 3
Расширение режима : CM (complete main)
Параметр Endianness формата : Big
Идентификатор кодека : 2000
Продолжительность : 1 ч. 31 м.
Вид битрейта : Постоянный
Битрейт : 448 Кбит/сек
Каналы : 6 каналов
Расположение каналов : Front: L C R, Side: L R, LFE
Частота : 48,0 КГц
Битовая глубина : 16 бит
Метод сжатия : С потерями
Размер потока : 292 Мбайт (15%)
Выравнивание : Разделение по промежуткам
Продолжительность промежутка : 40 мс. (1,00 видеокадр)
Время предзагрузки промежутка : 500 мс.
Аудио #3
Идентификатор : 3
Формат : AC-3
Формат/Информация : Audio Coding 3
Расширение режима : CM (complete main)
Параметр Endianness формата : Big
Идентификатор кодека : 2000
Продолжительность : 1 ч. 31 м.
Вид битрейта : Постоянный
Битрейт : 384 Кбит/сек
Каналы : 6 каналов
Расположение каналов : Front: L C R, Side: L R, LFE
Частота : 48,0 КГц
Битовая глубина : 16 бит
Метод сжатия : С потерями
Размер потока : 251 Мбайт (13%)
Выравнивание : Разделение по промежуткам
Продолжительность промежутка : 40 мс. (1,00 видеокадр)
Время предзагрузки промежутка : 500 мс.
Яндекс.Метрика
Рейтинг@Mail.ru